img image001 image001 image001 image001 image001 image001 image001 image001 image001 image001 image001 image001 image001 image001 image001

Planets Sun Sun Sun
Статистика раздачи
Автор: Снежана | Размер: 2.63 ГБ | Добавлен: 27 июл 2013
Раздают: 2    Качают: 1
Скачать торрент
Скачать торрент
Описание торрента

СообщениеДобавлено: 27 июл 2013 

Что? Где? Когда? - Летняя серия игр 2013 года



Год выпуска: 2013
Страна: Россия
Жанр: Интеллектуальная игра
Продолжительность: в скринлисте
Перевод: Не требуется
Режиссер: Борис Крюк
Описание: Популярнейшая командная интеллектуальная игра. В элитарном телевизионном казино игроки-знатоки зарабатывают деньги своим умом, отвечая на вопросы телезрителей. Проводятся летние и зимние игры. В эфире с 1975 года. За четверть века перед глазами телезрителей прошло более 170 игр. Сначала программа обосновалась в баре телецентра в Останкино и провела там 7 лет (с 1975 по 1982 гг.), затем переехала на улицу Герцена, д. 47 (с 1983 по 1986 гг.), потом были три прямых эфира из Болгарии в 1987 г., Центр Международной Торговли на Красной Пресне в 1988-1989 гг., и наконец, Охотничий домик в Нескучном саду, где она обитает по сегодняшний день. Сейчас на адрес Телекомпании "Игра" приходит по 150000-200000 вопросов в месяц. После обработки и проверки остается в среднем 75 вопросов в год. Каждую игру на столе находится 12 вопросов. Всего за 25 лет было задано 1514 вопросов. В играх клуба приняли участие 168 мужчин и 59 женщин. Всего через клуб прошло 227 знатоков, из них 41 иностранных. Лучшие были награждены призом "Хрустальная сова".
Релиз:

Качество: SATRip
Формат: AVI
Видео кодек: XviD
Аудио кодек: MP3
Видео: 720x400 (1.80:1), 25 fps, XviD build 50 ~1500 kbps avg
Аудио: 48 kHz, MPEG Layer 3, 2 ch, ~128.00 kbps avg

ИГРА 1

Команда Росатома
1. Никита Баринов
2. Александра Золотова
3. Екатерина Гудкова
4. Евгений Фионов
5. Егор Барданов
6. Константин Рудер

ИГРА 2

Команда Балаша Касумова
1. Юлия Лазарева
2. Ровшан Аскеров
3. Михаил Скипский
4. Елизавета Овдеенко
5. Дмитрий Авдеенко
6. Балаш Касумов

ИГРА 3

Команда Андрея Супрановича
1. Анастасия Шутова
2. Эдуард Шагал
3. Иван Топчий
4. Дмитрий Панайотти
5. Александр Тобенгауз
6. Андрей Супранович

ИГРА 4

Команда Алеся Мухина
1. Илья Новиков
2. Григорий Алхазов
3. Гюнель Бабаева
4. Эльман Талыбов
5. Анатолий Бугаев
6. Алесь Мухин


ОбщееПолное имя : D:РаздачиЧтоГдеКогда Летняя серия 2013 SATRipЧтоГдеКогда Летняя серия 2013 года - Финал SATRip.aviФормат : AVIФормат/Информация : Audio Video InterleaveРазмер файла : 699 МбайтПродолжительность : 59 м.Общий поток : 1641 Кбит/сек

ВидеоИдентификатор : 0Формат : MPEG-4 VisualПрофиль формата : Simple@L3Параметр BVOP формата : НетПараметр QPel формата : НетПараметр GMC формата : Без точки переходаПараметр матрицы формата : Default (H.263)Идентификатор кодека : XVIDИдентификатор кодека/Подсказка : XviDПродолжительность : 59 м.Битрейт : 1500 Кбит/секШирина : 720 пикселейВысота : 400 пикселейСоотношение сторон : 16:9Частота кадров : 25,000 кадров/секЦветовое пространство : YUVСубдискретизация насыщенности : 4:2:0Битовая глубина : 8 битТип развёртки : ПрогрессивнаяМетод сжатия : С потерямиБит/(Пиксели*Кадры) : 0.208Размер потока : 639 Мбайт (91%)Библиотека кодирования : XviD 1.2.1 (UTC 2008-12-04)

АудиоИдентификатор : 1Формат : MPEG AudioВерсия формата : Version 1Профиль формата : Layer 3Идентификатор кодека : 55Идентификатор кодека/Подсказка : MP3Продолжительность : 59 м.Продолжительность оригинала : 59 м.Вид битрейта : ПостоянныйБитрейт : 128 Кбит/секКаналы : 2 каналаЧастота : 48,0 КГцМетод сжатия : С потерямиРазмер потока : 54,5 Мбайт (8%)Выравнивание : Разделение по промежуткамПродолжительность промежутка : 24 мс. (0,60 видеокадр)




   Похожие торренты   Торрент   Размер 
В этой теме нет новых непрочитанных сообщений. Что? Где? Когда? - Летняя серия игр 2013 года - Игра третья (2013) HDTVRip

1 | 1

885.35 МБ

В этой теме нет новых непрочитанных сообщений. Что? Где? Когда? - Летняя серия игр 2013 года - Игра вторая (2013) HDTVRip

0 | 1

762.25 МБ

В этой теме нет новых непрочитанных сообщений. Что? Где? Когда? - Летняя серия игр 2013 года - Игра первая (2013) DVB

0 | 1

1.15 ГБ

В этой теме нет новых непрочитанных сообщений. Что? Где? Когда? - Летняя серия игр 2013 года - Игра вторая (2013) DVB

0 | 1

1.51 ГБ

В этой теме нет новых непрочитанных сообщений. Что? Где? Когда? Летняя серия. Игра третья (2011) SATRip

0 | 5

628.74 МБ

В этой теме нет новых непрочитанных сообщений. Что? Где? Когда? Летняя серия. Вторая игра (2010) SATRip

0 | 6

501.17 МБ

В этой теме нет новых непрочитанных сообщений. Что? Где? Когда? Летняя серия. Четвертая игра (2010) SATRip

0 | 5

501.21 МБ




Вы не можете начинать темы
Вы не можете отвечать на сообщения
Вы не можете редактировать свои сообщения
Вы не можете удалять свои сообщения
Вы не можете добавлять вложения

Перейти:  
Для Мосгорсуда, Роскомнадзора и рекламодателей: mosgorsud-torrent[собачка]yandex.ru
 Вход
ppkBB3cker v.2 © 2008-2014 @ PPK
[ Time : 0.027s | 14 Queries | GZIP : Off ]

Торрент трекер RUTOR.IN, Не можете зайти на rutor.org? Какой новый адрес рутор? Какое зеркало рутор? Не работает rutor.org и зеркала? Тогда наш торрент специально для вас. Rutor.in неофициальное зеркало rutor. В случае если у Вас заблокирован rutor или вдруг Вы не можете на него зайти, то Вы без труда сможете скачать бесплатно и без рекламы последние новинки кино, игр, сериалов и прочего у нас, на Rutor.in. Не нужно использовать прокси, чтобы зайти на рутор, достаточно воспользоваться нашим ресурсом. Все новые фильмы, игры, сериалы, книги и музыка за 2013 и 2014 годы через торрент бесплатно. Скачивайте фильмы в хорошем качестве, игры для пк, xbox, playstation без регистрации. У нас вы найдете новые Зарубежные сериалы и Русские сериалы 2013, 2014, 2015 годов. Оставайтесь с нами, качайте любимые фильмы, игры, сериалы, книги и музыку.