img image001 image001 image001 image001 image001 image001 image001 image001 image001 image001 image001 image001 image001 image001 image001

Planets Sun Sun Sun
Статистика раздачи
Автор: Снежана | Размер: 1.1 ГБ | Добавлен: 27 июл 2013
Раздают: 42    Качают: 4
Скачать торрент
Скачать торрент
Описание торрента

СообщениеДобавлено: 27 июл 2013 


Инфомация о фильме
Оригинальное название: Вода
Год выхода: 2006
Жанр: документальный
Режиссер: Анастасия Попова
О фильме
Вас ждет завораживающее и увлекательное путешествие к самым истокам мироздания и разгадка древнейшей из тайн, которая долгое время ставила всех в тупик - ВЕЛИКАЯ ТАЙНА ВОДЫ.
Современные ученые выдвигают гипотезу, что ВОДА обладает памятью! Открыто ее четвертое состояние - информационное! Оказывается, вода способна воспринимать, сохранять и передавать информацию даже такую тонкую, как человеческая мысль, эмоция, слово.
Уникальные съемки, сложная графика, участие представителей всех религиозных конфессий, открытия ученых России, Казахстана, Швейцарии, Израиля, США, Англии, Австрии, Японии, Китая, Тибета...
Никогда и ни в одном другом научно-популярном фильме наука и религия не были еще так единодушны в своих убеждениях. Неожиданные и смелые предположения, уникальные результаты многолетних исследований открывают перед человечеством совершенно новые перспективы.
Фильм не утверждает, а предоставляет реальные факты. Верить или нет - дело каждого. География фильма - весь мир. Идея фильма простирается значительно дальше. Никакое краткое описание этого не объяснит.


Страна: Россия
Студия: п.ц. Мастерская, телеканал Россия
Продолжительность: 01:21:00
Перевод: Не требуется
Файл
Формат: MKV
Качество: DVDRip-AVC
Видео: MPEG4 AVC 1024 x 576, 25.000 fps, 1750 - 1943 Кбит/сек
Звук: AC-3, 2 ch, 192 Кб/сек
Субтитры: Нет

General
Unique ID : 183510318563194007401941362411990139452 (0x8A0ECD404E7810838E5541504F97C23C)
Complete name : D:DownloadsVelikaja.Taina.Vodi.2006.x264.DVDRip.(AVC).by.Тorrent-Хzona.mkv
Format : Matroska
Format version : Version 2
File size : 1.10 GiB
Duration : 1h 21mn
Overall bit rate : 1 943 Kbps
Encoded date : UTC 2013-06-15 07:01:00
Writing application : mkvmerge v6.1.0 ('Old Devil') built on Mar 4 2013 09:10:42
Writing library : libebml v1.3.0 + libmatroska v1.4.0
Video
ID : 1
Format : AVC
Format/Info : Advanced Video Codec
Format profile : High@L4.1
Format settings, CABAC : Yes
Format settings, ReFrames : 4 frames
Codec ID : V_MPEG4/ISO/AVC
Duration : 1h 21mn
Bit rate : 1 750 Kbps
Width : 1 024 pixels
Height : 576 pixels
Display aspect ratio : 16:9
Frame rate mode : Constant
Frame rate : 25.000 fps
Color space : YUV
Chroma subsampling : 4:2:0
Bit depth : 8 bits
Scan type : Progressive
Bits/(Pixel*Frame) : 0.119
Stream size : 996 MiB (88%)
Writing library : x264 core 130 r2273 b3065e6
Encoding settings : cabac=1 / ref=3 / deblock=1:-1:-1 / analyse=0x3:0x111 / me=umh / subme=9 / psy=1 / psy_rd=1.00:0.15 / mixed_ref=1 / me_range=32 / chroma_me=1 / trellis=2 / 8x8dct=1 / cqm=0 / deadzone=21,11 / fast_pskip=0 / chroma_qp_offset=-3 / threads=3 / lookahead_threads=1 / sliced_threads=0 / nr=0 / decimate=1 / interlaced=0 / bluray_compat=0 / constrained_intra=0 / bframes=3 / b_pyramid=2 / b_adapt=0 / b_bias=0 / direct=1 / weightb=1 / open_gop=0 / weightp=2 / keyint=250 / keyint_min=25 / scenecut=40 / intra_refresh=0 / rc_lookahead=50 / rc=2pass / mbtree=1 / bitrate=1750 / ratetol=1.0 / qcomp=0.60 / qpmin=0 / qpmax=69 / qpstep=4 / cplxblur=20.0 / qblur=0.5 / ip_ratio=1.40 / aq=1:1.00
Default : Yes
Forced : No
Audio
ID : 2
Format : AC-3
Format/Info : Audio Coding 3
Mode extension : CM (complete main)
Format settings, Endianness : Big
Codec ID : A_AC3
Duration : 1h 21mn
Bit rate mode : Constant
Bit rate : 192 Kbps
Channel(s) : 2 channels
Channel positions : Front: L R
Sampling rate : 48.0 KHz
Bit depth : 16 bits
Compression mode : Lossy
Stream size : 112 MiB (10%)
Default : Yes
Forced : No



Релиз от: &



   Похожие торренты   Торрент   Размер 
В этой теме нет новых непрочитанных сообщений. Вода 2. Тайна живой воды (2007) DVDRip-AVC от Тorrent-Хzona

233 | 4

701.48 МБ

В этой теме нет новых непрочитанных сообщений. Крылья России. Звезды Гидроавиасалона 1996-2006 (2006) DVDRip-AVC от Тorrent-Хzona

1 | 4

743.37 МБ

В этой теме нет новых непрочитанных сообщений. Иное (2006) DVDRip-AVC от Тorrent-Хzona

6 | 3

7.32 ГБ

В этой теме нет новых непрочитанных сообщений. Контора [01-12 из 12] (2006) DVDRip-AVC от Тorrent-Хzona

22 | 6

7.18 ГБ

В этой теме нет новых непрочитанных сообщений. Жена Сталина [01-04 из 04] (2006) DVDRip-AVC от Тorrent-Хzona

52 | 4

2.55 ГБ

В этой теме нет новых непрочитанных сообщений. Мертвое поле (2006) DVDRip-AVC от Тorrent-Хzona

49 | 5

1.71 ГБ

В этой теме нет новых непрочитанных сообщений. Женщины в игре без правил [01 - 05 из 5] (2006) DVDRip-AVC от Тorrent-Хzona

37 | 121

2.88 ГБ




Вы не можете начинать темы
Вы не можете отвечать на сообщения
Вы не можете редактировать свои сообщения
Вы не можете удалять свои сообщения
Вы не можете добавлять вложения

Перейти:  
Для Мосгорсуда, Роскомнадзора и рекламодателей: mosgorsud-torrent[собачка]yandex.ru
 Вход
ppkBB3cker v.2 © 2008-2014 @ PPK
[ Time : 0.020s | 14 Queries | GZIP : Off ]

Торрент трекер RUTOR.IN, Не можете зайти на rutor.org? Какой новый адрес рутор? Какое зеркало рутор? Не работает rutor.org и зеркала? Тогда наш торрент специально для вас. Rutor.in неофициальное зеркало rutor. В случае если у Вас заблокирован rutor или вдруг Вы не можете на него зайти, то Вы без труда сможете скачать бесплатно и без рекламы последние новинки кино, игр, сериалов и прочего у нас, на Rutor.in. Не нужно использовать прокси, чтобы зайти на рутор, достаточно воспользоваться нашим ресурсом. Все новые фильмы, игры, сериалы, книги и музыка за 2013 и 2014 годы через торрент бесплатно. Скачивайте фильмы в хорошем качестве, игры для пк, xbox, playstation без регистрации. У нас вы найдете новые Зарубежные сериалы и Русские сериалы 2013, 2014, 2015 годов. Оставайтесь с нами, качайте любимые фильмы, игры, сериалы, книги и музыку.