img image001 image001 image001 image001 image001 image001 image001 image001 image001 image001 image001 image001 image001 image001 image001

Planets Sun Sun Sun
Статистика раздачи
Автор: Снежана | Размер: 627.62 МБ | Добавлен: 27 июл 2013
Раздают: 40    Качают: 5
Скачать торрент
Скачать торрент
Описание торрента

СообщениеДобавлено: 27 июл 2013 


Инфомация о фильме
Название: National Geographic: Дикий Запад. Звериный вестерн
Оригинальное название: National Geographic: The Wild West. True Grit
Год выхода: 2012
Жанр: Документальный, фауна
Режиссер: Саймон Бойс / Simon Boyce
О фильме
Горы, высокие скалистые горы, окружив словно частоколом, они охраняют сердце нашего дикого запада. Это эпический спектакль, где бандиты и герои одиночки, сталкиваются лицом к лицу. А добропорядочные поселенцы стараются держаться подальше, в этих краях требуется твердость характера что бы выжить.
Страна: США
Продолжительность: 00:45:10
Перевод: Студийный (одноголосый закадровый)
Студия: National Geographic Television
Файл
Формат: MKV
Качество: HDTVRip-AVC
Видео: MPEG4 AVC 1024 x 576, 25.000 fps, 1750 - 1944 Кбит/сек
Звук: AC-3, 2 ch, 192 Кбит/сек
Субтитры: Нет


General
Unique ID : 202160933766922325925107299203048095189 (0x9816C793631EDDB682D43D1541D13DD5)
Complete name : C:DownloadsГотовые фильмыDikij.Zapad.Zverinyj.vestern.2012.x264.HDTVRip.(AVC).by.Тorrent-Хzona.mkv
Format : Matroska
Format version : Version 2
File size : 628 MiB
Duration : 45mn 8s
Overall bit rate : 1 944 Kbps
Encoded date : UTC 2013-06-11 21:49:52
Writing application : mkvmerge v6.1.0 ('Old Devil') built on Mar 4 2013 09:10:42
Writing library : libebml v1.3.0 + libmatroska v1.4.0
Video
ID : 1
Format : AVC
Format/Info : Advanced Video Codec
Format profile : High@L4.1
Format settings, CABAC : Yes
Format settings, ReFrames : 4 frames
Codec ID : V_MPEG4/ISO/AVC
Duration : 45mn 8s
Bit rate : 1 750 Kbps
Width : 1 024 pixels
Height : 576 pixels
Display aspect ratio : 16:9
Frame rate mode : Constant
Frame rate : 25.000 fps
Color space : YUV
Chroma subsampling : 4:2:0
Bit depth : 8 bits
Scan type : Progressive
Bits/(Pixel*Frame) : 0.119
Stream size : 553 MiB (88%)
Writing library : x264 core 130 r2273 b3065e6
Encoding settings : cabac=1 / ref=3 / deblock=1:-2:-2 / analyse=0x3:0x111 / me=umh / subme=9 / psy=1 / psy_rd=1.00:0.15 / mixed_ref=1 / me_range=32 / chroma_me=1 / trellis=2 / 8x8dct=1 / cqm=0 / deadzone=21,11 / fast_pskip=0 / chroma_qp_offset=-3 / threads=12 / lookahead_threads=1 / sliced_threads=0 / nr=0 / decimate=1 / interlaced=0 / bluray_compat=0 / constrained_intra=0 / bframes=3 / b_pyramid=2 / b_adapt=0 / b_bias=0 / direct=1 / weightb=1 / open_gop=0 / weightp=2 / keyint=250 / keyint_min=25 / scenecut=40 / intra_refresh=0 / rc_lookahead=50 / rc=2pass / mbtree=1 / bitrate=1750 / ratetol=1.0 / qcomp=0.60 / qpmin=0 / qpmax=69 / qpstep=4 / cplxblur=20.0 / qblur=0.5 / ip_ratio=1.40 / aq=1:1.00
Default : Yes
Forced : No
Audio
ID : 2
Format : AC-3
Format/Info : Audio Coding 3
Mode extension : CM (complete main)
Format settings, Endianness : Big
Codec ID : A_AC3
Duration : 45mn 8s
Bit rate mode : Constant
Bit rate : 192 Kbps
Channel(s) : 2 channels
Channel positions : Front: L R
Sampling rate : 48.0 KHz
Bit depth : 16 bits
Compression mode : Lossy
Stream size : 62.0 MiB (10%)
Default : Yes
Forced : No



Релиз от:



   Похожие торренты   Торрент   Размер 
В этой теме нет новых непрочитанных сообщений. National Geographic: Дикий Запад. Ровно в полдень / National Geographic: The Wild West. High Noon (2012) HDTVRip -AVC от Тorrent-Хzona

19 | 5

636.34 МБ

В этой теме нет новых непрочитанных сообщений. National Geographic: Дикий Запад / National Geographic: The Wild West (2012) BDRip 720p

62 | 13

7.7 ГБ

В этой теме нет новых непрочитанных сообщений. National Geographic. Супер паук / National Geographic. Super Spider (2012) HDTVRip - AVC от Тorrent-Хzona

179 | 7

593.4 МБ

В этой теме нет новых непрочитанных сообщений. National Geographic - Рождение Солнечной системы / National Geographic - Birth of the solar system (2008) HDTVRip-AVC от Тorrent-Хzona

15 | 5

633.61 МБ

В этой теме нет новых непрочитанных сообщений. National Geographic: По следам святого Грааля / National Geographic: Quest for the Grail (2000) DVDRip-AVC от Тorrent-Хzona

5 | 1

732.5 МБ

В этой теме нет новых непрочитанных сообщений. National Geographic.Комета века / National Geographic.Comet of the century (2013) HDTVRip-AVC от =Т-Хzona=

6 | 3

642.01 МБ

В этой теме нет новых непрочитанных сообщений. National Geographic: Дикая природа России. Заполярье / National Geographic: Wild Russia. Arctic [03 из 06] (2009) HDTVRip от ExKinoRay

4 | 2

702.01 МБ




Вы не можете начинать темы
Вы не можете отвечать на сообщения
Вы не можете редактировать свои сообщения
Вы не можете удалять свои сообщения
Вы не можете добавлять вложения

Перейти:  
Для Мосгорсуда, Роскомнадзора и рекламодателей: mosgorsud-torrent[собачка]yandex.ru
 Вход
ppkBB3cker v.2 © 2008-2014 @ PPK
[ Time : 0.031s | 15 Queries | GZIP : Off ]

Торрент трекер RUTOR.IN, Не можете зайти на rutor.org? Какой новый адрес рутор? Какое зеркало рутор? Не работает rutor.org и зеркала? Тогда наш торрент специально для вас. Rutor.in неофициальное зеркало rutor. В случае если у Вас заблокирован rutor или вдруг Вы не можете на него зайти, то Вы без труда сможете скачать бесплатно и без рекламы последние новинки кино, игр, сериалов и прочего у нас, на Rutor.in. Не нужно использовать прокси, чтобы зайти на рутор, достаточно воспользоваться нашим ресурсом. Все новые фильмы, игры, сериалы, книги и музыка за 2013 и 2014 годы через торрент бесплатно. Скачивайте фильмы в хорошем качестве, игры для пк, xbox, playstation без регистрации. У нас вы найдете новые Зарубежные сериалы и Русские сериалы 2013, 2014, 2015 годов. Оставайтесь с нами, качайте любимые фильмы, игры, сериалы, книги и музыку.
cron