img image001 image001 image001 image001 image001 image001 image001 image001 image001 image001 image001 image001 image001 image001 image001

Planets Sun Sun Sun
Статистика раздачи
Автор: Снежана | Размер: 2.12 ГБ | Добавлен: 27 июл 2013
Раздают: 28    Качают: 4
Скачать торрент
Скачать торрент
Описание торрента

СообщениеДобавлено: 27 июл 2013 


Инфомация о фильме
Название: Древние цивилизации. Взгляд сквозь века: Великие империи древности. Тайны исчезнувших цивилизаций. В поисках бессмертия.
Год выхода: 2006
Жанр: Документальный, история, эзотерика
Режиссер: Стив Гиллхам, Линда Романо
Текст читают: Сергей Чонишвили, Юрий Маляров, Елена Харитонова
Дополнительная информация: Исторические памятники в величественные древние храмы – свидетели ушедших цивилизаций – побуждают нас заглянуть вглубь времён. Фильмы расскажут о правителях и воинах, о купцах и мореходах, о свободных гражданах и рабах, оставивших нам удивительное наследие. Прикоснитесь к могуществу ушедших культур. Своими глазами взгляните, как жили те, о ком теперь говорят лишь легенды!
В создании фильмов использованы уникальные архивные материалы National Geographic.
Содержание:

Побывайте в городах, которых нет на карте! Вы узнаете о том, как Карфаген стал одним из самых могущественных государств древности и в течение целого тысячелетия господствовал в Средиземном море, как Карфаген бросил вызов Риму и в конце концов пал в результате Пунических войн. Вы побываете на вилле, построенной по проекту императора Адриана, увидите Адрианов вал – древнеримское оборонительное сооружение. И, наконец, увидите заброшенный город инков – Мачу-Пикчу.


Загадочные руины помогут разгадать древние тайны! Представим Помпею до того, как проснувшийся вулкан похоронил этот город под слоем пепла. Смелые рисунки на стенах, древние таверны и увеселительные дома. Побываем на «Вилле мистерий», где втайне отправляли ритуалы в честь Диониса – бога вина и чувственных наслаждений. Пройдём по Кносскому дворцу, узнаем о кровавых ритуалах. Перенесёмся в леса Гватемалы, где возникло древнее государство майя. Увидим Тикаль, его пирамиды, где совершались ритуальные жертвоприношения.




Какой была жизнь под властью древних богов? Вам предстоит увидеть Ангкор-Ват – гигантский храмовый комплекс, окружённый широкими каналами. Здесь было государство древних кхмеров, распространивших своё господство на большую часть Индокитая. Услышим рассказ об отце Тутанхамона – Эхнатоне, свидетельства о деяниях которого оказались погребены под песками разрушенного города Амарны. Побываем на зелёных склонах Олимпии и узнаем о том, что спорт и религия в древности были неотделимы.



Страна: США, Россия
Продолжительность: 3 x ~ 00:50:00
Перевод: Не требуется
Файл
Формат: MKV
Качество: DVDRip-AVC
Видео: MPEG4 AVC 1024 x 776, 25.000 fps, 1750 - 1944 Кбит/сек
Звук: AC-3, 2 ch, 192 Кбит/сек
Субтитры: Нет


General
Unique ID : 244109091661564697041660124161090576962 (0xB7A5B3705548442FB72F277EBE18E242)
Complete name : C:DownloadsГотовые фильмыDrevnii_tsivilizatsii_vsgljad skvos weka.2012.x264.DVDRip.(AVC).by.Тorrent-Хzona2_Tayni_ischeznuvshikh_tsivilizatsiy.2012.x264.DVDRip.(AVC).by.Тorrent-Хzona.mkv
Format : Matroska
Format version : Version 2
File size : 685 MiB
Duration : 49mn 15s
Overall bit rate : 1 944 Kbps
Encoded date : UTC 2013-06-19 09:02:24
Writing application : mkvmerge v6.1.0 ('Old Devil') built on Mar 4 2013 09:10:42
Writing library : libebml v1.3.0 + libmatroska v1.4.0
Video
ID : 1
Format : AVC
Format/Info : Advanced Video Codec
Format profile : High@L4.1
Format settings, CABAC : Yes
Format settings, ReFrames : 4 frames
Codec ID : V_MPEG4/ISO/AVC
Duration : 49mn 15s
Bit rate : 1 750 Kbps
Width : 1 024 pixels
Height : 776 pixels
Display aspect ratio : 4:3
Frame rate mode : Constant
Frame rate : 25.000 fps
Color space : YUV
Chroma subsampling : 4:2:0
Bit depth : 8 bits
Scan type : Progressive
Bits/(Pixel*Frame) : 0.088
Stream size : 603 MiB (88%)
Writing library : x264 core 130 r2273 b3065e6
Encoding settings : cabac=1 / ref=3 / deblock=1:-2:-2 / analyse=0x3:0x111 / me=umh / subme=9 / psy=1 / psy_rd=1.00:0.15 / mixed_ref=1 / me_range=32 / chroma_me=1 / trellis=2 / 8x8dct=1 / cqm=0 / deadzone=21,11 / fast_pskip=0 / chroma_qp_offset=-3 / threads=12 / lookahead_threads=1 / sliced_threads=0 / nr=0 / decimate=1 / interlaced=0 / bluray_compat=0 / constrained_intra=0 / bframes=3 / b_pyramid=2 / b_adapt=0 / b_bias=0 / direct=1 / weightb=1 / open_gop=0 / weightp=2 / keyint=250 / keyint_min=25 / scenecut=40 / intra_refresh=0 / rc_lookahead=50 / rc=2pass / mbtree=1 / bitrate=1750 / ratetol=1.0 / qcomp=0.60 / qpmin=0 / qpmax=69 / qpstep=4 / cplxblur=20.0 / qblur=0.5 / ip_ratio=1.40 / aq=1:1.00
Default : Yes
Forced : No
Audio
ID : 2
Format : AC-3
Format/Info : Audio Coding 3
Mode extension : CM (complete main)
Format settings, Endianness : Big
Codec ID : A_AC3
Duration : 49mn 15s
Bit rate mode : Constant
Bit rate : 192 Kbps
Channel(s) : 2 channels
Channel positions : Front: L R
Sampling rate : 48.0 KHz
Bit depth : 16 bits
Compression mode : Lossy
Stream size : 67.6 MiB (10%)
Default : Yes
Forced : No



Релиз от:



   Похожие торренты   Торрент   Размер 
В этой теме нет новых непрочитанных сообщений. National Geographic: Чудеса XXI века: Уникальные вертолеты / Ultimate Structures: Super Copters (2006) DVDRip-AVC от Тorrent-Хzona

43 | 2

694.9 МБ

В этой теме нет новых непрочитанных сообщений. Украденная победа или новый взгляд на первую мировую войну (2008) DVDRip-AVC от Тorrent-Хzona

8 | 2

541.83 МБ

В этой теме нет новых непрочитанных сообщений. Вне времени. Калашников из каменного века (2010) DVDRip-AVC от Тorrent-Хzona

2 | 2

776.59 МБ

В этой теме нет новых непрочитанных сообщений. Ступени цивилизации. Мир после Стоунхенджа / World after Stonehenge[01-04 из 4] (2011) DVBRip-AVC от Тorrent-Хzona

5 | 4

2.99 ГБ

В этой теме нет новых непрочитанных сообщений. Крылья России. Звезды Гидроавиасалона 1996-2006 (2006) DVDRip-AVC от Тorrent-Хzona

1 | 4

743.37 МБ

В этой теме нет новых непрочитанных сообщений. Вода (2006) DVDRip-AVC от Тorrent-Хzona

42 | 4

1.1 ГБ

В этой теме нет новых непрочитанных сообщений. Контора [01-12 из 12] (2006) DVDRip-AVC от Тorrent-Хzona

22 | 6

7.18 ГБ




Вы не можете начинать темы
Вы не можете отвечать на сообщения
Вы не можете редактировать свои сообщения
Вы не можете удалять свои сообщения
Вы не можете добавлять вложения

Перейти:  
Для Мосгорсуда, Роскомнадзора и рекламодателей: mosgorsud-torrent[собачка]yandex.ru
 Вход
ppkBB3cker v.2 © 2008-2014 @ PPK
[ Time : 0.017s | 15 Queries | GZIP : Off ]

Торрент трекер RUTOR.IN, Не можете зайти на rutor.org? Какой новый адрес рутор? Какое зеркало рутор? Не работает rutor.org и зеркала? Тогда наш торрент специально для вас. Rutor.in неофициальное зеркало rutor. В случае если у Вас заблокирован rutor или вдруг Вы не можете на него зайти, то Вы без труда сможете скачать бесплатно и без рекламы последние новинки кино, игр, сериалов и прочего у нас, на Rutor.in. Не нужно использовать прокси, чтобы зайти на рутор, достаточно воспользоваться нашим ресурсом. Все новые фильмы, игры, сериалы, книги и музыка за 2013 и 2014 годы через торрент бесплатно. Скачивайте фильмы в хорошем качестве, игры для пк, xbox, playstation без регистрации. У нас вы найдете новые Зарубежные сериалы и Русские сериалы 2013, 2014, 2015 годов. Оставайтесь с нами, качайте любимые фильмы, игры, сериалы, книги и музыку.
cron