img image001 image001 image001 image001 image001 image001 image001 image001 image001 image001 image001 image001 image001 image001 image001

Planets Sun Sun Sun
Статистика раздачи
Автор: Снежана | Размер: 645.15 МБ | Добавлен: 27 июл 2013
Раздают: 13    Качают: 5
Скачать торрент
Скачать торрент
Описание торрента

СообщениеДобавлено: 27 июл 2013 


Инфомация о фильме
Название: History Channel. Тайны древности. Атлантида: потерянная цивилизация
Оригинальное название: Ancient Mysteries. Atlantis: The Lost Cizilization
Год выхода: 1995
Жанр: Научно - популярный
Режиссер: Джошуа Хэниг
О фильме
Почему легенда о городе под водой вот уже столько времени занимает умы людей? Почему поиски затерянного континента продолжаются и по сей день? Правда ли, что Атлантида действительно существовала, и если это так, то где? Какими были люди Атлантиды? Может быть, люди подошли очень близко к раскрытию этих загадок. Каждый день и ночь ведутся раскопки в местах, где предпологаемо находится затерянный континент. И возможно скоро удасться обнаружить место существования невиданной и неизвестной до этого времени передовой цивилизации.
Страна: США
Студия: Filmroos A&E Television Network (History Channel)
Продолжительность: 00:46:24
Перевод: Профессиональный (двухголосый)
Файл
Формат: MKV
Качество: DVDRip-AVC
Видео: MPEG4 AVC 768 x 576, 25.000 fps, 1750 - 1944 Кбит/сек
Звук: AC-3, 2 ch, 192 Кб/сек
Субтитры: Нет

General
Unique ID : 221462011367631505822650920507039975801 (0xA69C082C270F01D7964EC3E572DA8979)
Complete name : D:DownloadsСделанные фильмыAtlantis.The.Lost.Cizilization.1995.x264.DVDRip.(AVC).by.Тorrent-Хzona.mkv
Format : Matroska
Format version : Version 2
File size : 645 MiB
Duration : 46mn 24s
Overall bit rate : 1 944 Kbps
Encoded date : UTC 2013-06-19 01:47:19
Writing application : mkvmerge v6.1.0 ('Old Devil') built on Mar 4 2013 09:10:42
Writing library : libebml v1.3.0 + libmatroska v1.4.0
Video
ID : 1
Format : AVC
Format/Info : Advanced Video Codec
Format profile : High@L4.1
Format settings, CABAC : Yes
Format settings, ReFrames : 4 frames
Codec ID : V_MPEG4/ISO/AVC
Duration : 46mn 24s
Bit rate : 1 750 Kbps
Width : 768 pixels
Height : 576 pixels
Display aspect ratio : 4:3
Frame rate mode : Constant
Frame rate : 25.000 fps
Color space : YUV
Chroma subsampling : 4:2:0
Bit depth : 8 bits
Scan type : Progressive
Bits/(Pixel*Frame) : 0.158
Stream size : 569 MiB (88%)
Writing library : x264 core 130 r2273 b3065e6
Encoding settings : cabac=1 / ref=3 / deblock=1:-1:-1 / analyse=0x3:0x111 / me=umh / subme=9 / psy=1 / psy_rd=1.00:0.15 / mixed_ref=1 / me_range=32 / chroma_me=1 / trellis=2 / 8x8dct=1 / cqm=0 / deadzone=21,11 / fast_pskip=0 / chroma_qp_offset=-3 / threads=3 / lookahead_threads=1 / sliced_threads=0 / nr=0 / decimate=1 / interlaced=0 / bluray_compat=0 / constrained_intra=0 / bframes=3 / b_pyramid=2 / b_adapt=0 / b_bias=0 / direct=1 / weightb=1 / open_gop=0 / weightp=2 / keyint=250 / keyint_min=25 / scenecut=40 / intra_refresh=0 / rc_lookahead=50 / rc=2pass / mbtree=1 / bitrate=1750 / ratetol=1.0 / qcomp=0.60 / qpmin=0 / qpmax=69 / qpstep=4 / cplxblur=20.0 / qblur=0.5 / ip_ratio=1.40 / aq=1:1.00
Default : Yes
Forced : No
Audio
ID : 2
Format : AC-3
Format/Info : Audio Coding 3
Mode extension : CM (complete main)
Format settings, Endianness : Big
Codec ID : A_AC3
Duration : 46mn 24s
Bit rate mode : Constant
Bit rate : 192 Kbps
Channel(s) : 2 channels
Channel positions : Front: L R
Sampling rate : 48.0 KHz
Bit depth : 16 bits
Compression mode : Lossy
Stream size : 63.7 MiB (10%)
Default : Yes
Forced : No




Релиз от: &



   Похожие торренты   Торрент   Размер 
В этой теме нет новых непрочитанных сообщений. History Channel. Тайны древности. Затерянный город пиратов / Ancient Mysteries. Lost City Of Pirates (1997) DVDRip-AVC от Тorrent-Хzona

9 | 4

631.09 МБ

В этой теме нет новых непрочитанных сообщений. History Channel. Тайны древности. Расцвет и падение Спарты / Ancient Mysteries. Rise And Fall Of The Spartans (1995) DVDRip-AVC от Тorrent-Хzona

18 | 5

2.45 ГБ

В этой теме нет новых непрочитанных сообщений. History Channel. Тайны древности. Самураи / Ancient Mysteries: Samurai! (1997) DVDRip-AVC от Тorrent-Хzona

10 | 1

636.99 МБ

В этой теме нет новых непрочитанных сообщений. Тайны древности. Секреты империи ацтеков / Ancient Mysteries: Secrets Of The Aztec Empire (1996) DVDRip-AVC от Тorrent-Хzona

16 | 2

632.46 МБ

В этой теме нет новых непрочитанных сообщений. Тайны древности. Запретный город: династия и судьба / Ancient Mysteries. The Forbidden City: Dynasty and Destiny (1996) DVDRip-AVC от Тorrent-Хzona

7 | 2

645.61 МБ

В этой теме нет новых непрочитанных сообщений. Тайны древности: Варвары / History Channel: Ancient Mysteries: Barbarians (2003) DVDRip

12 | 3

2.74 ГБ

В этой теме нет новых непрочитанных сообщений. Тайны древности. Варвары / History Channel. Barbarians. [01-04 из 04] (2004) DVDRip-AVC от Тorrent-Хzona

8 | 5

2.37 ГБ




Вы не можете начинать темы
Вы не можете отвечать на сообщения
Вы не можете редактировать свои сообщения
Вы не можете удалять свои сообщения
Вы не можете добавлять вложения

Перейти:  
Для Мосгорсуда, Роскомнадзора и рекламодателей: mosgorsud-torrent[собачка]yandex.ru
 Вход
ppkBB3cker v.2 © 2008-2014 @ PPK
[ Time : 0.022s | 15 Queries | GZIP : Off ]

Торрент трекер RUTOR.IN, Не можете зайти на rutor.org? Какой новый адрес рутор? Какое зеркало рутор? Не работает rutor.org и зеркала? Тогда наш торрент специально для вас. Rutor.in неофициальное зеркало rutor. В случае если у Вас заблокирован rutor или вдруг Вы не можете на него зайти, то Вы без труда сможете скачать бесплатно и без рекламы последние новинки кино, игр, сериалов и прочего у нас, на Rutor.in. Не нужно использовать прокси, чтобы зайти на рутор, достаточно воспользоваться нашим ресурсом. Все новые фильмы, игры, сериалы, книги и музыка за 2013 и 2014 годы через торрент бесплатно. Скачивайте фильмы в хорошем качестве, игры для пк, xbox, playstation без регистрации. У нас вы найдете новые Зарубежные сериалы и Русские сериалы 2013, 2014, 2015 годов. Оставайтесь с нами, качайте любимые фильмы, игры, сериалы, книги и музыку.
cron