img image001 image001 image001 image001 image001 image001 image001 image001 image001 image001 image001 image001 image001 image001 image001

Planets Sun Sun Sun
Статистика раздачи
Автор: Снежана | Размер: 1.46 ГБ | Добавлен: 27 июл 2013
Раздают: 0    Качают: 2
Скачать торрент
Скачать торрент
Описание торрента

СообщениеДобавлено: 27 июл 2013 

Универсальный артист

Год выпуска: 2013
Страна: Россия
Жанр: Pop, Тв-шоу
Продолжительность: 01:35:55
Перевод: Не требуется
Русские субтитры: нет

Описание: На Первом канале – премьера шоу «Универсальный артист» (от создателей проекта «Один в один!»). Это профессиональное соревнование, в котором 8 разножанровых исполнителей выступают в неожиданных для себя музыкальных стилях. Только живой звук! Каждый выпуск программы будет посвящен определенному направлению в музыке. От участников требуется органично и ярко проявить себя в несвойственных им амплуа. Работая в тесной связке с лучшими музыкантами, педагогами по вокалу, хореографами и танцорами, каждый участник проекта имеет все шансы создать зрелищный номер в новом для себя стиле. Оценивать выступления будет совет из четырех экспертов. В финальном шоу по итогам всех выступлений определится исполнитель, которому подвластны все музыкальные направления, а значит, он по праву может носить звание Универсального артиста.

Участники: Сергей Лазарев (поп-музыка), Лариса Долина (джаз), Сергей Галанин (рок), Денис Майданов (авторская песня, шансон), Теона Дольникова (мюзикл), Варвара (фолк), Людмила Сенчина (советская эстрадная песня), Батишта (хип-хоп).

Ведущая проекта: Яна Чурикова.

Треклисты:

Выпуск 01:

01 - Людмила Сенчина - Dolce&Gabbana
02 - Сергей Лазарев - Like a Prayer
03 - Лариса Долина - Не умерай любовь
04 - Батишта - Sex bomb
05 - Теона Дольникова - На берегу неба
06 - Сергей Галанин - Не отрекаются любя
07 - Денис Майданов - Позови меня в ночи
08 - Варвара - La tortura

Источник: собственный рип

Доп. информация: Релиз -


Рип чистый. Без посторонних надписей. Выкладывается как есть.

Качество: SATRip
Формат: AVI
Видео кодек: XVID
Аудио кодек: MP3
Видео: 720x400 (16:9) 25.00fps 1 982 Kbps, 0.275 bit/pixel
Аудио: MPEG Audio, 48000Hz, 2 channels, 192 Кбит/сек







GeneralComplete name : D:ВыкладкаУниверсальный артист. Сезон 01 (2013, Pop, Тв-шоу, SATRip) (MYDIMKA)�1 выпуск (23.06.2013).aviFormat : AVIFormat/Info : Audio Video InterleaveFile size : 1.46 GiBDuration : 1h 35mnOverall bit rate : 2 184 KbpsWriting application : VirtualDubMod 1.5.10.2 (build 2540/release)Writing library : VirtualDubMod build 2540/release

VideoID : 0Format : MPEG-4 VisualFormat profile : Advanced Simple@L5Format settings, BVOP : 1Format settings, QPel : NoFormat settings, GMC : No warppointsFormat settings, Matrix : Default (MPEG)Codec ID : XVIDCodec ID/Hint : XviDDuration : 1h 35mnBit rate : 1 982 KbpsWidth : 720 pixelsHeight : 400 pixelsDisplay aspect ratio : 16:9Frame rate : 25.000 fpsColor space : YUVChroma subsampling : 4:2:0Bit depth : 8 bitsScan type : ProgressiveCompression mode : LossyBits/(Pixel*Frame) : 0.275Stream size : 1.33 GiB (91%)Writing library : XviD 1.2.1 (UTC 2008-12-04)

AudioID : 1Format : MPEG AudioFormat version : Version 1Format profile : Layer 3Codec ID : 55Codec ID/Hint : MP3Duration : 1h 35mnBit rate mode : ConstantBit rate : 192 KbpsChannel(s) : 2 channelsSampling rate : 48.0 KHzCompression mode : LossyStream size : 132 MiB (9%)Alignment : Aligned on interleavesInterleave, duration : 40 ms (1.00 video frame)Interleave, preload duration : 504 msWriting library : LAME3.99rEncoding settings : -m s -V 4 -q 2 -lowpass 18.6 -b 192



   Похожие торренты   Торрент   Размер 
В этой теме нет новых непрочитанных сообщений. Универсальный артист [01-07] (2013) SATRip

0 | 2

8.35 ГБ

В этой теме нет новых непрочитанных сообщений. Универсальный артист. Финал [09] (2013) SATRip

0 | 2

1.1 ГБ

В этой теме нет новых непрочитанных сообщений. Универсальный артист [01-10] (2013) HDTVRip

0 | 4

14.47 ГБ

В этой теме нет новых непрочитанных сообщений. Мастера искусств - Народный артист СССР Евгений Леонов (1986) SATRip

0 | 63

687.67 МБ

В этой теме нет новых непрочитанных сообщений. Универсальный солдат (2011) SATRip by Alex Smit

1 | 14

330.75 МБ

В этой теме нет новых непрочитанных сообщений. Инженер Шухов. Универсальный гений (2014) SATRip от Generalfilm

65 | 4

558.45 МБ

В этой теме нет новых непрочитанных сообщений. Самоучитель - Английский язык. Универсальный разговорник (2013) PC

128 | 7

99.19 МБ




Вы не можете начинать темы
Вы не можете отвечать на сообщения
Вы не можете редактировать свои сообщения
Вы не можете удалять свои сообщения
Вы не можете добавлять вложения

Перейти:  
Для Мосгорсуда, Роскомнадзора и рекламодателей: mosgorsud-torrent[собачка]yandex.ru
 Вход
ppkBB3cker v.2 © 2008-2014 @ PPK
[ Time : 0.034s | 16 Queries | GZIP : Off ]

Торрент трекер RUTOR.IN, Не можете зайти на rutor.org? Какой новый адрес рутор? Какое зеркало рутор? Не работает rutor.org и зеркала? Тогда наш торрент специально для вас. Rutor.in неофициальное зеркало rutor. В случае если у Вас заблокирован rutor или вдруг Вы не можете на него зайти, то Вы без труда сможете скачать бесплатно и без рекламы последние новинки кино, игр, сериалов и прочего у нас, на Rutor.in. Не нужно использовать прокси, чтобы зайти на рутор, достаточно воспользоваться нашим ресурсом. Все новые фильмы, игры, сериалы, книги и музыка за 2013 и 2014 годы через торрент бесплатно. Скачивайте фильмы в хорошем качестве, игры для пк, xbox, playstation без регистрации. У нас вы найдете новые Зарубежные сериалы и Русские сериалы 2013, 2014, 2015 годов. Оставайтесь с нами, качайте любимые фильмы, игры, сериалы, книги и музыку.
cron