img image001 image001 image001 image001 image001 image001 image001 image001 image001 image001 image001 image001 image001 image001 image001

Planets Sun Sun Sun
Статистика раздачи
Автор: Снежана | Размер: 1.9 ГБ | Добавлен: 27 июл 2013
Раздают: 0    Качают: 2
Скачать торрент
Скачать торрент
Описание торрента

СообщениеДобавлено: 27 июл 2013 

#77

Информация о фильме
Оригинальное название: Об отречении от царя
Год выхода: 2005
Жанр: документальный, история, биография
Режиссер: Галина Царева
В ролях: Татьяна Миронова, Сергей Кисличенко

О фильме:
Когда невинная кровь Святых Царственных Мучеников пролилась в мрачном подвале Ипатьевского дома, это страшное событие, от которого, казалось, могли содрогнуться самые камни, не вызвало ни ужаса, ни острой скорби в толще русского народа, почти не заметившего его в шуме общих потрясений революции. После пленения Царя государственным и военным заговором в марте 1917 г. уже через три дня Синод от лица Церкви отменил поминовение Помазанного им же на царство и издал указ поминать на богослужениях клятвопреступное временное правительство. За вероотступничеством военных, членов царского правительства и членов Синода последовало и попустительство цареубийства народом и армией. Князь Н.Д.Жевахов, русский духовный писатель, товарищ Обер-прокурора Святейшего Синода, обвиняя народ в восстании на Царя, писал: «Русские люди, восстав против Богом дарованного Помазанника, тем самым восстали против самого Бога. Нет Царя — нет и России». Богоотступничество и попрание воли Божией стало причиной всех бед, постигших русский народ за последние столетия.
Страна: Россия
Студия: "Слово"
Продолжительность: 01:58:13
Перевод: Русский

Файл
Кодек: DivX
Качество: DVDRip
Видео: XviD, 2103 Кбит/с, 720x544
Звук: AC3, 2 ch, 192 Кбит/с

Семпл





Полное имя : Ob.Otrechenii.Ot.Caria.2005.XviD.DVDRip.avi
Формат : AVI
Формат/Информация : Audio Video Interleave
Размер файла : 1,90 Гбайт
Продолжительность : 1 ч. 58 м.
Общий поток : 2302 Кбит/сек
Программа кодирования : VirtualDubMod 1.5.4.1 (build 2178/release)
Библиотека кодирования : VirtualDubMod build 2178/release

Видео
Идентификатор : 0
Формат : MPEG-4 Visual
Профиль формата : Advanced Simple@L5
Параметр BVOP формата : 1
Параметр QPel формата : Нет
Параметр GMC формата : Без точки перехода
Параметр матрицы формата : Выборочная
Идентификатор кодека : XVID
Идентификатор кодека/Подсказка : XviD
Продолжительность : 1 ч. 58 м.
Битрейт : 2103 Кбит/сек
Ширина : 720 пикселей
Высота : 544 пикселя
Соотношение сторон : 4:3
Частота кадров : 25,000 кадров/сек
Цветовое пространство : YUV
Субдискретизация насыщенности : 4:2:0
Битовая глубина : 8 бит
Тип развёртки : Прогрессивная
Метод сжатия : С потерями
Бит/(Пиксели*Кадры) : 0.215
Размер потока : 1,74 Гбайт (91%)
Библиотека кодирования : XviD 1.2.1 (UTC 2008-12-04)

Аудио
Идентификатор : 1
Формат : AC-3
Формат/Информация : Audio Coding 3
Расширение режима : CM (complete main)
Параметр Endianness формата : Big
Идентификатор кодека : 2000
Продолжительность : 1 ч. 58 м.
Вид битрейта : Постоянный
Битрейт : 192 Кбит/сек
Каналы : 2 канала
Расположение каналов : Front: L R
Частота : 48,0 КГц
Битовая глубина : 16 бит
Метод сжатия : С потерями
Размер потока : 162 Мбайт (8%)
Выравнивание : Разделение по промежуткам
Продолжительность промежутка : 96 мс. (2,40 видеокадра)
Время предзагрузки промежутка : 96 мс.
Язык : English



   Похожие торренты   Торрент   Размер 
В этой теме нет новых непрочитанных сообщений. Белянин Андрей - Тайный сыск царя Гороха 8. Ржавый меч Царя Гороха (2014) MP3

452 | 21

785.1 МБ

В этой теме нет новых непрочитанных сообщений. Без царя в голове / Svitati (1999) DVDRip

4 | 3

1.46 ГБ

В этой теме нет новых непрочитанных сообщений. Печать царя Соломона (2013) DVDRip от -=HD-NET=-

152 | 12

1.08 ГБ

В этой теме нет новых непрочитанных сообщений. Сокровище царя Соломона / Buñuel y la mesa del rey Salomón (2001) DVDRip | P

474 | 90

1.37 ГБ

В этой теме нет новых непрочитанных сообщений. Копи царя Соломона / King Solomon's Mines (1950) DVDRip от Generalfilm

6 | 7

1.37 ГБ

В этой теме нет новых непрочитанных сообщений. Копи царя Соломона / King Solomon's Mines [02 из 02] (2004) DVDRip от ExKinoRay

53 | 10

2.74 ГБ

В этой теме нет новых непрочитанных сообщений. Копи царя Соломона / King Solomon's Mines (1985) DVDRip от Киномагия

25 | 4

1.45 ГБ




Вы не можете начинать темы
Вы не можете отвечать на сообщения
Вы не можете редактировать свои сообщения
Вы не можете удалять свои сообщения
Вы не можете добавлять вложения

Перейти:  
Для Мосгорсуда, Роскомнадзора и рекламодателей: mosgorsud-torrent[собачка]yandex.ru
 Вход
ppkBB3cker v.2 © 2008-2014 @ PPK
[ Time : 0.028s | 14 Queries | GZIP : Off ]

Торрент трекер RUTOR.IN, Не можете зайти на rutor.org? Какой новый адрес рутор? Какое зеркало рутор? Не работает rutor.org и зеркала? Тогда наш торрент специально для вас. Rutor.in неофициальное зеркало rutor. В случае если у Вас заблокирован rutor или вдруг Вы не можете на него зайти, то Вы без труда сможете скачать бесплатно и без рекламы последние новинки кино, игр, сериалов и прочего у нас, на Rutor.in. Не нужно использовать прокси, чтобы зайти на рутор, достаточно воспользоваться нашим ресурсом. Все новые фильмы, игры, сериалы, книги и музыка за 2013 и 2014 годы через торрент бесплатно. Скачивайте фильмы в хорошем качестве, игры для пк, xbox, playstation без регистрации. У нас вы найдете новые Зарубежные сериалы и Русские сериалы 2013, 2014, 2015 годов. Оставайтесь с нами, качайте любимые фильмы, игры, сериалы, книги и музыку.