img image001 image001 image001 image001 image001 image001 image001 image001 image001 image001 image001 image001 image001 image001 image001

Planets Sun Sun Sun
Статистика раздачи
Автор: Снежана | Размер: 1.89 ГБ | Добавлен: 27 июл 2013
Раздают: 13    Качают: 2
Скачать торрент
Скачать торрент
Описание торрента

СообщениеДобавлено: 27 июл 2013 


Инфомация о фильме
Название: Эндшпиль: Проект глобального порабощения
Оригинальное название: Endgame - Blueprint For Global Enslavement
Год выхода: 2007
Жанр: Документальный, расследование
Режиссер: Алекс Джоунс
О фильме
В фильме рассказывается о группе «Билдерберг», которая состоит из сильных мира сего. Названа так по названию гостиницы, в котором проходило их первое заседание. Члены этой группы даже не те, кто у власти. Речь идёт о людях, которые стоят ЗА властью. В неё входят финансовые магнаты, такие как Рокфеллер, Билл Гейтс, видные политические деятели, такие как Маргарет Тетчер и прочие. Они хотят установить новый мировой порядок. Они, по сути, хотят установить феодальный строй. Согласно фильму, у них есть план: Во-первых, они хотят сократить количество населения до 500 миллионов. Для этого они добились использования пищи в качестве оружия, а также организовали стерилизацию. Также они спонсируют различные войны. Во-вторых, они стараются объединить все страны в одно государство, путём выпуска единых валют, таких как Евро, а также путём совмещения функций. Предполагается создание единого правительства. Понятное дело, кто будет за этим правительством. В-третьих, они организуют средства контроля за «рабами», чтобы подавлять восстания. Для этого они распрямляют дороги (чтобы легко было отслеживать перемещение населения), устанавливают камеры наблюдения (якобы, для защиты от террористов), снимают отпечатки пальцев, помещают чипы в паспорта, планируют вживлять специальные чипы под кожу и прочее. Причём, когда проводят прямые дороги, чтобы люди не возмущались, они скупают все средства массовой информации вдоль этой дороги и проводят соответствующие PR-кампании. В-четвёртых, они проводят различные химические опыты, в том числе и над людьми, чтобы разработать некое средство, которое позволит людям жить вечно. Надо уточнить, что лишь определённым людям, а другим — нет (ведь нужно сократить население до 500 миллионов).

Страна: США
Студия: Magnolia Management
Продолжительность: 02:19:00
Перевод: Любительский (одноголосый)
Файл
Формат: MKV
Качество: DVDRip-AVC
Видео: MPEG4 AVC 1024 x 576, 25.000 fps, 1750 - 1943 Кбит/с
Звук: AC-3, 2 ch, 192 Кбит/с
Субтитры: Нет

General
Unique ID : 214857032468388251108798078928248544524 (0xA1A3F592048F2638A0554DFC960A9D0C)
Complete name : D:DownloadsENDGAME.2007.x264.DVDRip.(AVC).by.Тorrent-Хzona.mkv
Format : Matroska
Format version : Version 2
File size : 1.89 GiB
Duration : 2h 19mn
Overall bit rate : 1 943 Kbps
Encoded date : UTC 2013-06-26 06:44:58
Writing application : mkvmerge v6.1.0 ('Old Devil') built on Mar 4 2013 09:10:42
Writing library : libebml v1.3.0 + libmatroska v1.4.0
Video
ID : 1
Format : AVC
Format/Info : Advanced Video Codec
Format profile : High@L4.1
Format settings, CABAC : Yes
Format settings, ReFrames : 4 frames
Codec ID : V_MPEG4/ISO/AVC
Duration : 2h 19mn
Bit rate : 1 750 Kbps
Width : 1 024 pixels
Height : 576 pixels
Display aspect ratio : 16:9
Frame rate mode : Constant
Frame rate : 29.970 fps
Color space : YUV
Chroma subsampling : 4:2:0
Bit depth : 8 bits
Scan type : Progressive
Bits/(Pixel*Frame) : 0.099
Stream size : 1.67 GiB (88%)
Writing library : x264 core 130 r2273 b3065e6
Encoding settings : cabac=1 / ref=3 / deblock=1:-1:-1 / analyse=0x3:0x111 / me=umh / subme=9 / psy=1 / psy_rd=1.00:0.15 / mixed_ref=1 / me_range=32 / chroma_me=1 / trellis=2 / 8x8dct=1 / cqm=0 / deadzone=21,11 / fast_pskip=0 / chroma_qp_offset=-3 / threads=3 / lookahead_threads=1 / sliced_threads=0 / nr=0 / decimate=1 / interlaced=0 / bluray_compat=0 / constrained_intra=0 / bframes=3 / b_pyramid=2 / b_adapt=0 / b_bias=0 / direct=1 / weightb=1 / open_gop=0 / weightp=2 / keyint=250 / keyint_min=25 / scenecut=40 / intra_refresh=0 / rc_lookahead=50 / rc=2pass / mbtree=1 / bitrate=1750 / ratetol=1.0 / qcomp=0.60 / qpmin=0 / qpmax=69 / qpstep=4 / cplxblur=20.0 / qblur=0.5 / ip_ratio=1.40 / aq=1:1.00
Default : Yes
Forced : No
Audio
ID : 2
Format : AC-3
Format/Info : Audio Coding 3
Mode extension : CM (complete main)
Format settings, Endianness : Big
Codec ID : A_AC3
Duration : 2h 19mn
Bit rate mode : Constant
Bit rate : 192 Kbps
Channel(s) : 2 channels
Channel positions : Front: L R
Sampling rate : 48.0 KHz
Bit depth : 16 bits
Compression mode : Lossy
Stream size : 192 MiB (10%)
Default : Yes
Forced : No




Релиз от: &



   Похожие торренты   Торрент   Размер 
В этой теме нет новых непрочитанных сообщений. Эндшпиль: Проект глобального порабощения / Endgame: Blueprint For Global Enslavement (2007) DVDRip

4 | 1

701.01 МБ

В этой теме нет новых непрочитанных сообщений. Эндшпиль: план глобального порабощения / Endgame - Blueprint For Global Enslavement (2007) DVDRip

177 | 5

2.18 ГБ

В этой теме нет новых непрочитанных сообщений. Эндшпиль: план глобального порабощения / Endgame - Blueprint For Global Enslavement (2007) DVD5

30 | 7

4.3 ГБ

В этой теме нет новых непрочитанных сообщений. Адский эндшпиль / Operation: Endgame / Rogues Gallery (2010) DVDRip-AVC

0 | 1

1.47 ГБ

В этой теме нет новых непрочитанных сообщений. Ликвидация [01-14 из 14] (2007) DVDRip от Torrent-Xzona | КПК

1030 | 89

4.08 ГБ

В этой теме нет новых непрочитанных сообщений. Шах и Мат / Эндшпиль / Endgame [S01] (2011) HDTVRip | LostFilm

65 | 4

5.87 ГБ

В этой теме нет новых непрочитанных сообщений. Эндшпиль / Endgame [S01] (2011) HDTVRip | AlexFilm

6 | 2

4.98 ГБ




Вы не можете начинать темы
Вы не можете отвечать на сообщения
Вы не можете редактировать свои сообщения
Вы не можете удалять свои сообщения
Вы не можете добавлять вложения

Перейти:  
Для Мосгорсуда, Роскомнадзора и рекламодателей: mosgorsud-torrent[собачка]yandex.ru
 Вход
ppkBB3cker v.2 © 2008-2014 @ PPK
[ Time : 0.041s | 14 Queries | GZIP : On ]

Торрент трекер RUTOR.IN, Не можете зайти на rutor.org? Какой новый адрес рутор? Какое зеркало рутор? Не работает rutor.org и зеркала? Тогда наш торрент специально для вас. Rutor.in неофициальное зеркало rutor. В случае если у Вас заблокирован rutor или вдруг Вы не можете на него зайти, то Вы без труда сможете скачать бесплатно и без рекламы последние новинки кино, игр, сериалов и прочего у нас, на Rutor.in. Не нужно использовать прокси, чтобы зайти на рутор, достаточно воспользоваться нашим ресурсом. Все новые фильмы, игры, сериалы, книги и музыка за 2013 и 2014 годы через торрент бесплатно. Скачивайте фильмы в хорошем качестве, игры для пк, xbox, playstation без регистрации. У нас вы найдете новые Зарубежные сериалы и Русские сериалы 2013, 2014, 2015 годов. Оставайтесь с нами, качайте любимые фильмы, игры, сериалы, книги и музыку.