img image001 image001 image001 image001 image001 image001 image001 image001 image001 image001 image001 image001 image001 image001 image001

Planets Sun Sun Sun
Статистика раздачи
Автор: Снежана | Размер: 1.96 ГБ | Добавлен: 27 июл 2013
Раздают: 17    Качают: 2
Скачать торрент
Скачать торрент
Описание торрента

СообщениеДобавлено: 27 июл 2013 


Инфомация о фильме
Название: Обман Обамы
Оригинальное название: Obama Deceptio
Год выхода: 2009
Жанр: Документальный, расследование
Режиссер: Алекс Джоунс
О фильме
Большинство людей не осознают, что на деле являются мягким, податливым пластилином. Руки, что его мнут - средства массовой информации. Формочка для вырезания фигурок - президент. Что будет из пластилина слеплено - зависит от того, чьи те руки и чья та формочка. Кому они ПРИНАДЛЕЖАТ. В фильме подробно рассказывается обо всех аспектах пластилиновой лепки. И о глубоко порочном в своей гениальности больном мозге мастера пластилиновых дел. Алекс Джоунс - создатель фильма - не идол и не бог. У каждого есть сильные стороны, но всегда есть и спорные моменты. Однако его начинания, его деятельность бесценны для нашего будущего. Такие фильмы по телевидению не транслируются, иначе из пластилина будет слеплено нечто неприятно-неожиданное для его хозяина.

Страна: США
Студия: Alex Jones Productions
Продолжительность: 02:17:00
Перевод: Любительский (одноголосый)
Файл
Формат: MKV
Качество: DVDRip-AVC
Видео: MPEG4 AVC 1024 x 576, 25.000 fps, 1750 - 2048 Кбит/с
Звук: AC-3, 2 ch, 320 Кбит/с
Субтитры: Нет

General
Unique ID : 241015775714101412480360207370244902474 (0xB551F33009B58996B887C96B56ECCE4A)
Complete name : D:DownloadsOBAMA.DECEPTION.2009.x264.DVDRip.(AVC).by.Тorrent-Хzona.mkv
Format : Matroska
Format version : Version 2
File size : 1.96 GiB
Duration : 2h 17mn
Overall bit rate : 2 048 Kbps
Encoded date : UTC 2013-06-26 15:34:06
Writing application : mkvmerge v6.1.0 ('Old Devil') built on Mar 4 2013 09:10:42
Writing library : libebml v1.3.0 + libmatroska v1.4.0
Video
ID : 1
Format : AVC
Format/Info : Advanced Video Codec
Format profile : High@L4.1
Format settings, CABAC : Yes
Format settings, ReFrames : 4 frames
Codec ID : V_MPEG4/ISO/AVC
Duration : 2h 17mn
Bit rate : 1 750 Kbps
Width : 1 024 pixels
Height : 576 pixels
Display aspect ratio : 16:9
Frame rate mode : Constant
Frame rate : 29.970 fps
Color space : YUV
Chroma subsampling : 4:2:0
Bit depth : 8 bits
Scan type : Progressive
Bits/(Pixel*Frame) : 0.099
Stream size : 1.62 GiB (82%)
Writing library : x264 core 130 r2273 b3065e6
Encoding settings : cabac=1 / ref=3 / deblock=1:-1:-1 / analyse=0x3:0x111 / me=umh / subme=9 / psy=1 / psy_rd=1.00:0.15 / mixed_ref=1 / me_range=32 / chroma_me=1 / trellis=2 / 8x8dct=1 / cqm=0 / deadzone=21,11 / fast_pskip=0 / chroma_qp_offset=-3 / threads=3 / lookahead_threads=1 / sliced_threads=0 / nr=0 / decimate=1 / interlaced=0 / bluray_compat=0 / constrained_intra=0 / bframes=3 / b_pyramid=2 / b_adapt=0 / b_bias=0 / direct=1 / weightb=1 / open_gop=0 / weightp=2 / keyint=250 / keyint_min=25 / scenecut=40 / intra_refresh=0 / rc_lookahead=50 / rc=2pass / mbtree=1 / bitrate=1750 / ratetol=1.0 / qcomp=0.60 / qpmin=0 / qpmax=69 / qpstep=4 / cplxblur=20.0 / qblur=0.5 / ip_ratio=1.40 / aq=1:1.00
Default : Yes
Forced : No
Audio
ID : 2
Format : AC-3
Format/Info : Audio Coding 3
Mode extension : CM (complete main)
Format settings, Endianness : Big
Codec ID : A_AC3
Duration : 2h 17mn
Bit rate mode : Constant
Bit rate : 320 Kbps
Channel(s) : 2 channels
Channel positions : Front: L R
Sampling rate : 48.0 KHz
Bit depth : 16 bits
Compression mode : Lossy
Stream size : 314 MiB (16%)
Default : Yes
Forced : No




Релиз от: &



   Похожие торренты   Торрент   Размер 
В этой теме нет новых непрочитанных сообщений. Обман Обамы / Obama Deception (2009) DVDRip

10 | 7

702.03 МБ

В этой теме нет новых непрочитанных сообщений. Обман Обамы / The Obama Deception: The Mask Comes Off (2009) DVDRip

3 | 3

1.57 ГБ

В этой теме нет новых непрочитанных сообщений. Обман Обамы / The Obama Deception (2009) DVD-5 | L1

0 | 0

4.33 ГБ

В этой теме нет новых непрочитанных сообщений. Страшный сон Обамы. Русские Идут / Nightmare Obama - Russian there comes (2014) HDTV 1080i

52 | 4

137.78 МБ

В этой теме нет новых непрочитанных сообщений. Обман / Deception (2001) DVDRip от ExKinoRay

1 | 4

1.72 ГБ

В этой теме нет новых непрочитанных сообщений. Двойной обман / Double Deception (2001) DVDRip от ExKinoRay

1 | 7

1.07 ГБ

В этой теме нет новых непрочитанных сообщений. Жертва / Kurbaan (2009) DVDRip от Torrent-Xzona | L1

9 | 2

1.67 ГБ




Вы не можете начинать темы
Вы не можете отвечать на сообщения
Вы не можете редактировать свои сообщения
Вы не можете удалять свои сообщения
Вы не можете добавлять вложения

Перейти:  
Для Мосгорсуда, Роскомнадзора и рекламодателей: mosgorsud-torrent[собачка]yandex.ru
 Вход
ppkBB3cker v.2 © 2008-2014 @ PPK
[ Time : 0.038s | 15 Queries | GZIP : Off ]

cron