img image001 image001 image001 image001 image001 image001 image001 image001 image001 image001 image001 image001 image001 image001 image001

Planets Sun Sun Sun
Статистика раздачи
Автор: Снежана | Размер: 1.95 ГБ | Добавлен: 27 июл 2013
Раздают: 8    Качают: 3
Скачать торрент
Скачать торрент
Описание торрента

СообщениеДобавлено: 27 июл 2013 


Инфомация о фильме
Название: Падение Республики
Оригинальное название: The Fall Of The Republic
Год выхода: 2009
Жанр: Документальный, расследование
Режиссер: Алекс Джоунс
О фильме
"Падение Республики" - самый сильный из фильмов Алекса Джонса, чётко формулирующий доказательства процесса полного крушения государственности Соединённых Штатов Америки в пользу всеобщей глобализации.
Данный фильм рекомендуется к просмотру после документальных лент этого же режиссёра "ЭНДШПИЛЬ: ПРОЕКТ ГЛОБАЛЬНОГО ПОРАБОЩЕНИЯ" и "ОБМАН ОБАМЫ". Кроме того, рекомендуется посмотреть такие ленты, как "ХОЗЯЕВА ДЕНЕГ", "РАССЛЕДОВАНИЕ 9/11".
Фильм переведён и озвучен в ноябре 2009 года.


Страна: США
Студия: Alex Jones Productions, Free Speech Systems
Продолжительность: 02:23:00
Перевод: Любительский (одноголосый)
Файл
Формат: MKV
Качество: DVDRip-AVC
Видео: MPEG4 AVC 1024 x 576, 25.000 fps, 1750 - 1944 Кбит/с
Звук: AC-3, 2 ch, 192 Кбит/с
Субтитры: Нет

General
Unique ID : 191347874929840226364100950625312704377 (0x8FF4429D44B15DA9A9DDF42A4D0E0779)
Complete name : D:DownloadsPadenie.Respubliki.2009.x264.DVDRip.(AVC).by.Тorrent-Хzona.mkv
Format : Matroska
Format version : Version 2
File size : 1.95 GiB
Duration : 2h 23mn
Overall bit rate : 1 944 Kbps
Encoded date : UTC 2013-06-28 07:35:30
Writing application : mkvmerge v6.1.0 ('Old Devil') built on Mar 4 2013 09:10:42
Writing library : libebml v1.3.0 + libmatroska v1.4.0
Video
ID : 1
Format : AVC
Format/Info : Advanced Video Codec
Format profile : High@L4.1
Format settings, CABAC : Yes
Format settings, ReFrames : 4 frames
Codec ID : V_MPEG4/ISO/AVC
Duration : 2h 23mn
Bit rate : 1 750 Kbps
Width : 1 024 pixels
Height : 576 pixels
Display aspect ratio : 16:9
Frame rate mode : Constant
Frame rate : 29.970 fps
Color space : YUV
Chroma subsampling : 4:2:0
Bit depth : 8 bits
Scan type : Progressive
Bits/(Pixel*Frame) : 0.099
Stream size : 1.72 GiB (88%)
Writing library : x264 core 130 r2273 b3065e6
Encoding settings : cabac=1 / ref=3 / deblock=1:-1:-1 / analyse=0x3:0x111 / me=umh / subme=9 / psy=1 / psy_rd=1.00:0.15 / mixed_ref=1 / me_range=32 / chroma_me=1 / trellis=2 / 8x8dct=1 / cqm=0 / deadzone=21,11 / fast_pskip=0 / chroma_qp_offset=-3 / threads=3 / lookahead_threads=1 / sliced_threads=0 / nr=0 / decimate=1 / interlaced=0 / bluray_compat=0 / constrained_intra=0 / bframes=3 / b_pyramid=2 / b_adapt=0 / b_bias=0 / direct=1 / weightb=1 / open_gop=0 / weightp=2 / keyint=250 / keyint_min=25 / scenecut=40 / intra_refresh=0 / rc_lookahead=50 / rc=2pass / mbtree=1 / bitrate=1750 / ratetol=1.0 / qcomp=0.60 / qpmin=0 / qpmax=69 / qpstep=4 / cplxblur=20.0 / qblur=0.5 / ip_ratio=1.40 / aq=1:1.00
Default : Yes
Forced : No
Audio
ID : 2
Format : AC-3
Format/Info : Audio Coding 3
Mode extension : CM (complete main)
Format settings, Endianness : Big
Codec ID : A_AC3
Duration : 2h 23mn
Bit rate mode : Constant
Bit rate : 192 Kbps
Channel(s) : 2 channels
Channel positions : Front: L R
Sampling rate : 48.0 KHz
Bit depth : 16 bits
Compression mode : Lossy
Stream size : 198 MiB (10%)
Default : Yes
Forced : No




Релиз от: &



   Похожие торренты   Торрент   Размер 
В этой теме нет новых непрочитанных сообщений. Падение Республики / The Fall Of The Republic (2009) DVDRip

3 | 2

2.12 ГБ

В этой теме нет новых непрочитанных сообщений. Падение Олимпа / Olympus Has Fallen (2013) HDRip от Torrent-Xzona | КПК | Чистый звук

1 | 2

409.24 МБ

В этой теме нет новых непрочитанных сообщений. Билла / Billa (2009) DVDRip от Torrent-Xzona | P

12 | 3

2.06 ГБ

В этой теме нет новых непрочитанных сообщений. Олимпиус Инферно (2009) DVDRip от Torrent-Xzona | КПК

2 | 2

349.44 МБ

В этой теме нет новых непрочитанных сообщений. Жертва / Kurbaan (2009) DVDRip от Torrent-Xzona | L1

9 | 2

1.67 ГБ

В этой теме нет новых непрочитанных сообщений. Бандит / Turpin (2009) DVDRip от Torrent-Xzona

1 | 2

697.75 МБ

В этой теме нет новых непрочитанных сообщений. Обман Обамы / Obama Deception (2009) DVDRip-AVC от Torrent-Xzona

17 | 2

1.96 ГБ




Вы не можете начинать темы
Вы не можете отвечать на сообщения
Вы не можете редактировать свои сообщения
Вы не можете удалять свои сообщения
Вы не можете добавлять вложения

Перейти:  
Для Мосгорсуда, Роскомнадзора и рекламодателей: mosgorsud-torrent[собачка]yandex.ru
 Вход
ppkBB3cker v.2 © 2008-2014 @ PPK
[ Time : 0.026s | 14 Queries | GZIP : Off ]

Торрент трекер RUTOR.IN, Не можете зайти на rutor.org? Какой новый адрес рутор? Какое зеркало рутор? Не работает rutor.org и зеркала? Тогда наш торрент специально для вас. Rutor.in неофициальное зеркало rutor. В случае если у Вас заблокирован rutor или вдруг Вы не можете на него зайти, то Вы без труда сможете скачать бесплатно и без рекламы последние новинки кино, игр, сериалов и прочего у нас, на Rutor.in. Не нужно использовать прокси, чтобы зайти на рутор, достаточно воспользоваться нашим ресурсом. Все новые фильмы, игры, сериалы, книги и музыка за 2013 и 2014 годы через торрент бесплатно. Скачивайте фильмы в хорошем качестве, игры для пк, xbox, playstation без регистрации. У нас вы найдете новые Зарубежные сериалы и Русские сериалы 2013, 2014, 2015 годов. Оставайтесь с нами, качайте любимые фильмы, игры, сериалы, книги и музыку.