img image001 image001 image001 image001 image001 image001 image001 image001 image001 image001 image001 image001 image001 image001 image001

Planets Sun Sun Sun
Статистика раздачи
Автор: Снежана | Размер: 557.54 МБ | Добавлен: 27 июл 2013
Раздают: 19    Качают: 2
Скачать торрент
Скачать торрент
Описание торрента

СообщениеДобавлено: 27 июл 2013 


Инфомация о фильме
Оригинальное название: Фронтовой бомбардировщик Су-24. Умная сила
Год выхода: 2013
Жанр: Документальный, авиация
Режиссер: Андрей Кулясов
О фильме
Этот фильм рассказывает об отечественном фронтовом бомбардировщике Су-24.
Редкие кадры, воздушные съёмки, 3D анимация, интервью с конструкторами, инженерами и лётчиками-испытателями - всё это вы увидите в фильме "Фронтовой бомбардировщик Су-24. Умная сила".
Фронтовой бомбардировщик Су-24 для отечественной авиации стал во многом этапной машиной. В самолёте превосходным образом сочетаются такие характеристики как боевая нагрузка и радиус действия. Он способен проникать на территорию противника в режиме огибания рельефа местности. Его вооружение и бортовое оборудование позволяют эффективно наносить удары по различным наземным и надволным целям.
Фронтовой бомбардировщик Су-24 стал одним из первых образцов "умного оружия".

Страна: Россия
Студия: Студия «Крылья России»
Продолжительность: 00:38:34
Перевод: Оригинал
Файл
Формат: MKV
Качество: DVDRip-AVC
Видео: MPEG4 AVC 1024 x 576, 25.000 fps, 1700 - 2021 Кбит/с
Звук: AC-3, 2 ch, 320 Кбит/с
Субтитры: Нет

General
Unique ID : 204086501298133291812708555499902447935 (0x9989A16284DA2C8F820C05221165B13F)
Complete name : D:DownloadsSu-24.2012.x264.DVDRip.(AVC).by.Тorrent-Хzona.mkv
Format : Matroska
Format version : Version 2
File size : 558 MiB
Duration : 38mn 34s
Overall bit rate : 2 021 Kbps
Encoded date : UTC 2013-06-29 20:38:38
Writing application : mkvmerge v6.1.0 ('Old Devil') built on Mar 4 2013 09:10:42
Writing library : libebml v1.3.0 + libmatroska v1.4.0
Video
ID : 1
Format : AVC
Format/Info : Advanced Video Codec
Format profile : High@L4.1
Format settings, CABAC : Yes
Format settings, ReFrames : 5 frames
Codec ID : V_MPEG4/ISO/AVC
Duration : 38mn 34s
Bit rate : 1 700 Kbps
Width : 1 024 pixels
Height : 576 pixels
Display aspect ratio : 16:9
Frame rate mode : Constant
Frame rate : 25.000 fps
Color space : YUV
Chroma subsampling : 4:2:0
Bit depth : 8 bits
Scan type : Progressive
Bits/(Pixel*Frame) : 0.115
Stream size : 458 MiB (82%)
Writing library : x264 core 130 r2273 b3065e6
Encoding settings : cabac=1 / ref=5 / deblock=1:-2:-2 / analyse=0x3:0x111 / me=umh / subme=9 / psy=1 / psy_rd=0.00:0.10 / mixed_ref=1 / me_range=32 / chroma_me=1 / trellis=2 / 8x8dct=1 / cqm=0 / deadzone=21,11 / fast_pskip=0 / chroma_qp_offset=-1 / threads=6 / lookahead_threads=1 / sliced_threads=0 / nr=0 / decimate=1 / interlaced=0 / bluray_compat=0 / constrained_intra=0 / bframes=5 / b_pyramid=2 / b_adapt=0 / b_bias=0 / direct=1 / weightb=1 / open_gop=0 / weightp=2 / keyint=250 / keyint_min=25 / scenecut=40 / intra_refresh=0 / rc_lookahead=50 / rc=2pass / mbtree=1 / bitrate=1700 / ratetol=1.0 / qcomp=0.60 / qpmin=0 / qpmax=69 / qpstep=4 / cplxblur=20.0 / qblur=0.5 / ip_ratio=1.40 / aq=1:1.00
Default : Yes
Forced : No
Audio
ID : 2
Format : AC-3
Format/Info : Audio Coding 3
Mode extension : CM (complete main)
Format settings, Endianness : Big
Codec ID : A_AC3
Duration : 38mn 34s
Bit rate mode : Constant
Bit rate : 320 Kbps
Channel(s) : 2 channels
Channel positions : Front: L R
Sampling rate : 48.0 KHz
Bit depth : 16 bits
Compression mode : Lossy
Stream size : 88.3 MiB (16%)
Default : Yes
Forced : No



Релиз от: &



   Похожие торренты   Торрент   Размер 
В этой теме нет новых непрочитанных сообщений. Фронтовой бомбардировщик Су-24. «Умная сила» (2013) DVDRip от -=HD-NET=-

0 | 3

550.91 МБ

В этой теме нет новых непрочитанных сообщений. Крылья России. Советские самолеты. Фронтовой бомбардировщик Як-28 (2007) DVDRip-AVC от Тorrent-Хzona

12 | 2

1010.23 МБ

В этой теме нет новых непрочитанных сообщений. Фронтовой истребитель МиГ-29. Взлёт в будущее [01-02 из 02] (2011) DVDRip-AVC от Тorrent-Хzona

8 | 4

1021.97 МБ

В этой теме нет новых непрочитанных сообщений. Фронтовой бомбардировщик Су-24 (2012) SATRip

5 | 1

695.21 МБ

В этой теме нет новых непрочитанных сообщений. Discovery.Рим: Сила и величие. Культ порядка / Discovery.Rome: Power and Glory. The Cult of Order (1998) DVDRip-AVC от Тorrent-Хzona

14 | 3

694.8 МБ

В этой теме нет новых непрочитанных сообщений. Муравьи: тайная сила природы / Ants: Natures secret power (2005) HDTVRip-AVC от Тorrent-Хzona

9 | 5

724.97 МБ

В этой теме нет новых непрочитанных сообщений. Ostland. Ночь под свастикой (2013) DVDRip-AVC от Тorrent-Хzona

4 | 1

1.07 ГБ




Вы не можете начинать темы
Вы не можете отвечать на сообщения
Вы не можете редактировать свои сообщения
Вы не можете удалять свои сообщения
Вы не можете добавлять вложения

Перейти:  
Для Мосгорсуда, Роскомнадзора и рекламодателей: mosgorsud-torrent[собачка]yandex.ru
 Вход
ppkBB3cker v.2 © 2008-2014 @ PPK
[ Time : 0.048s | 14 Queries | GZIP : Off ]

Торрент трекер RUTOR.IN, Не можете зайти на rutor.org? Какой новый адрес рутор? Какое зеркало рутор? Не работает rutor.org и зеркала? Тогда наш торрент специально для вас. Rutor.in неофициальное зеркало rutor. В случае если у Вас заблокирован rutor или вдруг Вы не можете на него зайти, то Вы без труда сможете скачать бесплатно и без рекламы последние новинки кино, игр, сериалов и прочего у нас, на Rutor.in. Не нужно использовать прокси, чтобы зайти на рутор, достаточно воспользоваться нашим ресурсом. Все новые фильмы, игры, сериалы, книги и музыка за 2013 и 2014 годы через торрент бесплатно. Скачивайте фильмы в хорошем качестве, игры для пк, xbox, playstation без регистрации. У нас вы найдете новые Зарубежные сериалы и Русские сериалы 2013, 2014, 2015 годов. Оставайтесь с нами, качайте любимые фильмы, игры, сериалы, книги и музыку.