img image001 image001 image001 image001 image001 image001 image001 image001 image001 image001 image001 image001 image001 image001 image001

Planets Sun Sun Sun
Статистика раздачи
Автор: Снежана | Размер: 11.49 ГБ | Добавлен: 27 июл 2013
Раздают: 7    Качают: 1
Скачать торрент
Скачать торрент
Описание торрента

СообщениеДобавлено: 27 июл 2013 

Внедорожный тюнинг / Offroad Overhaul (12 выпусков)

Год выпуска: 2011
Страна: США
Жанр: документальный, познавательный
Продолжительность: ~00:21:00 выпуск
Перевод: Студийный (одноголосый закадровый)
Русские субтитры: нет

Режиссер: Джон Аронсон / John Aronson

Описание: Добро пожаловать на программу "Внедорожный тюнинг". Каждую неделю специалисты по тюнингу объезжают различные автоклубы и ищут достойного человека, чтобы превратить его машину в настоящего монстра, способного пробраться по любому ландшафту…

Доп. информация:
Короли бездорожья (Внедорожный тюнинг) / Offroad Overhaul (13 выпусков) скоро

Сэмпл: http://www.sendspace.com/file/0h5kmm

качество: HDTVRip
формат: MPEG-PS
Видео: MPEG2 Video, 720x576 (16:9) - анаморф, 25.00fps, ~6144, 0.593 bit/pixel
Аудио: MPEG Audio, 48000Hz, 2/0 (L,R) stereo, 192 Kbps

Выпуск 01:

Джип Ти-джей 2006.

Выпуск 02:

Джип Вранглер 1989.

Выпуск 03:

Джип Додж Рэм 2005.

Выпуск 04:

Джип Вранглер 2007.

Выпуск 05:

Джип Форд Ф-150 (пробег 250 000).

Выпуск 06:

Джип Тойота ФД Крузер 2008.

Выпуск 07:

Джип Чероки 2001.

Выпуск 08:

Джип Шевроле 2004.

Выпуск 09:

Джип Гранд Чероки 1999.

Выпуск 10:

Джип Додж Рэм 2004.

Выпуск 11:

Джип Вранглер 1991.

Выпуск 12:

Джип Тойота Такома 2000.

Полное имя : G:DVDВнедорожный тюнинг (2011)�1-Джип Ти-джей 2006.mpg
Формат : MPEG-PS
Размер файла : 938 Мбайт
Продолжительность : 20 м.
Общий поток : 6424 Кбит/сек

Видео
Идентификатор : 224 (0xE0)
Формат : MPEG Video
Версия формата : Version 2
Профиль формата : Main@Main
Параметр BVOP формата : Да
Параметр матрицы формата : По умолчанию
Параметр GOP формата : M=3, N=15
Продолжительность : 20 м.
Вид битрейта : Переменный
Битрейт : 6144 Кбит/сек
Ширина : 720 пикселей
Высота : 576 пикселей
Соотношение сторон : 16:9
Частота кадров : 25,000 кадров/сек
Стандарт вещания : PAL
Цветовое пространство : YUV
Субдискретизация насыщенности : 4:2:0
Битовая глубина : 8 бит
Тип развёртки : Прогрессивная
Метод сжатия : С потерями
Бит/(Пиксели*Кадры) : 0.593
Размер потока : 892 Мбайт (95%)

Аудио
Идентификатор : 192 (0xC0)
Формат : MPEG Audio
Версия формата : Version 1
Профиль формата : Layer 2
Продолжительность : 20 м.
Вид битрейта : Постоянный
Битрейт : 192 Кбит/сек
Каналы : 2 канала
Частота : 48,0 КГц
Метод сжатия : С потерями
Размер потока : 28,0 Мбайт (3%)








   Похожие торренты   Торрент   Размер 
В этой теме нет новых непрочитанных сообщений. Внедорожный тюнинг / Offroad Overhaul [13 выпусков] (2012) HDTVRip

1 | 3

11.57 ГБ

В этой теме нет новых непрочитанных сообщений. Мегазаводы: Грузовики Мерседес / Megafactories: Mercedes Overhaul (2011) HDTVRip 720p | P1

135 | 15

1.03 ГБ

В этой теме нет новых непрочитанных сообщений. The Elder Scrolls 3: Morrowind Overhaul (2011) PC | RePack

659 | 25

2.01 ГБ

В этой теме нет новых непрочитанных сообщений. Тюнинг автомобилей №6 (2011) PDF

14 | 25

80.99 МБ

В этой теме нет новых непрочитанных сообщений. Тюнинг (2010 - 2011) PDF

0 | 1

202.31 МБ

В этой теме нет новых непрочитанных сообщений. Тюнинг автомобилей № 11 (Ноябрь) (2011) PDF

0 | 2

73.73 МБ

В этой теме нет новых непрочитанных сообщений. Тюнинг автомобилей № 12 (Декабрь) (2011) PDF

0 | 6

73.64 МБ




Вы не можете начинать темы
Вы не можете отвечать на сообщения
Вы не можете редактировать свои сообщения
Вы не можете удалять свои сообщения
Вы не можете добавлять вложения

Перейти:  
Для Мосгорсуда, Роскомнадзора и рекламодателей: mosgorsud-torrent[собачка]yandex.ru
 Вход
ppkBB3cker v.2 © 2008-2014 @ PPK
[ Time : 0.041s | 16 Queries | GZIP : Off ]

cron