img image001 image001 image001 image001 image001 image001 image001 image001 image001 image001 image001 image001 image001 image001 image001

Planets Sun Sun Sun
Статистика раздачи
Автор: Снежана | Размер: 1.27 ГБ | Добавлен: 27 июл 2013
Раздают: 8    Качают: 12
Скачать торрент
Скачать торрент
Описание торрента

СообщениеДобавлено: 27 июл 2013 


Инфомация о фильме
Оригинальное название: Крылья России. Общее небо. 100 лет ВВС России
Год выхода: 2012
Жанр: Документальный, авиация
Режиссер: Алексей Поляков
О фильме
В августе 2012 года торжественно отмечалось 100-летие создания Военно-воздушных сил России. В честь этого события с 10 по 12 августа было организовано грандиозное авиашоу под названием "Общее небо". Праздник состоялся на территории трнаспортно-выставочного комплекса "Россия", расположенного на аэродроме "Раменское" ОАО "ЛИИ им. М.М. Громова" в Жуковском.
В грандиозном мероприятии приняли участие представители почти всех авиационных баз России и десятки зарубежных участников. Зрители в течение почти 8 часов наблюдали полёты 173 единиц отечественной и зарубежной авиационной техники: от аэроплана Блерио-XI выпуска 1912 года до новейшего отечественного истребителя 5 поколения Т-50. Столь масштабной и насыщенной лётной программы в истории современной России ещё не было.


Л-410, Су-25БМ, Су-27СМ3, Су-25СМ, МиГ-29СМТ, биплан "Туммелиса", триплан "Фоккер" DR-1, И-15бис, учебный самолёт ДИТ, По-2, МиГ-3, Як-9УМ, Як-3У, Як-11, "Харрикейн" МК 12, П-40 "Киттихок", P-51 "Мустанг", F4U "Корсар", B-25 "Митчелл", "Эвенджер", T-6 "Тексан", "Каталина", Douglas C-47 "Скайтрейн", МиГ-15УТИ, Блерио XI, Су-35, пилотажная группа "Русь" (самолёты Л-39), вертолёт Ми-2, пилотажная группа "Беркуты" (вертолёты Ми-28Н), Су-31 (пилотаж - Светлана Капанина), Ту-22М3, Ту-95МС, Ту-160, пилотажная группа итальянских ВВС "Фрече Триколори" (самолёты "Аэромакки" МБ-339), Ан-2, Ан-26, Ан-140, Ан-12, Ан-22, Ан-124-100 "Руслан", французский истребитель "Рафаль", Ту-134УБК, Ил-76МД, Ил-80, А-50, пилотажная группа Королевских ВВС Великобритании "Рэд Эрроуз" (самолёты Т-1 "Хок"), вертолёт Ка-52 "Аллигатор", Як-130, Су-24М, МиГ-31, Су-34, М-55 "Геофизика", вертолёт Ми-26, вертолёт Ми-8, вертолёт "Ансат-У", вертолёт Ми-35, МиГ-29, пилотажная группа ВВС Польши "Бело-красные Искры" (Biało-Czerwone Iskry, самолёты TS-11 Искра"), Су-27, пилотажная группа ВВС Финляндии «Полуночные ястребы» (самолёты "Хок"), Пилотажная группа "Первый полёт" (самолёты Як-52 и Як-54), ПАК ФА Т-50, МиГ-29М2, Як-130, пилотажная группа "Русские витязи" (самолёты Су-27), пилотажная группа "Стрижи" (самолёты МиГ-29).

Страна: Россия
Студия: Студия «Крылья России»
Продолжительность: 01:34:00
Перевод: Оригинал
Файл
Формат: MKV
Качество: DVDRip-AVC
Видео: MPEG4 AVC 1024 x 576, 25.000 fps, 1700 - 1893 Кбит/с
Звук: AC-3, 2 ch, 192 Кбит/с
Субтитры: Нет

General
Unique ID : 190426521936195021567907234210821703248 (0x8F42D06790145C0B9B8BC3CA64B80650)
Complete name : D:Downloads100.Let.VVS.Rossii.x264.DVDRip.(AVC).by.Тorrent-Хzona.mkv
Format : Matroska
Format version : Version 2
File size : 1.27 GiB
Duration : 1h 34mn
Overall bit rate : 1 926 Kbps
Encoded date : UTC 2013-06-30 16:58:53
Writing application : mkvmerge v6.1.0 ('Old Devil') built on Mar 4 2013 09:10:42
Writing library : libebml v1.3.0 + libmatroska v1.4.0
Video
ID : 1
Format : AVC
Format/Info : Advanced Video Codec
Format profile : High@L4.1
Format settings, CABAC : Yes
Format settings, ReFrames : 5 frames
Codec ID : V_MPEG4/ISO/AVC
Duration : 1h 34mn
Bit rate : 1 700 Kbps
Width : 1 024 pixels
Height : 576 pixels
Display aspect ratio : 16:9
Frame rate mode : Constant
Frame rate : 25.000 fps
Color space : YUV
Chroma subsampling : 4:2:0
Bit depth : 8 bits
Scan type : Progressive
Bits/(Pixel*Frame) : 0.115
Stream size : 1.10 GiB (86%)
Writing library : x264 core 130 r2273 b3065e6
Encoding settings : cabac=1 / ref=5 / deblock=1:-2:-2 / analyse=0x3:0x111 / me=umh / subme=9 / psy=1 / psy_rd=0.00:0.10 / mixed_ref=1 / me_range=32 / chroma_me=1 / trellis=2 / 8x8dct=1 / cqm=0 / deadzone=21,11 / fast_pskip=0 / chroma_qp_offset=-1 / threads=6 / lookahead_threads=1 / sliced_threads=0 / nr=0 / decimate=1 / interlaced=0 / bluray_compat=0 / constrained_intra=0 / bframes=5 / b_pyramid=2 / b_adapt=0 / b_bias=0 / direct=1 / weightb=1 / open_gop=0 / weightp=2 / keyint=250 / keyint_min=25 / scenecut=40 / intra_refresh=0 / rc_lookahead=50 / rc=2pass / mbtree=1 / bitrate=1700 / ratetol=1.0 / qcomp=0.60 / qpmin=0 / qpmax=69 / qpstep=4 / cplxblur=20.0 / qblur=0.5 / ip_ratio=1.40 / aq=1:1.00
Default : Yes
Forced : No
Audio
ID : 2
Format : AC-3
Format/Info : Audio Coding 3
Mode extension : CM (complete main)
Format settings, Endianness : Big
Codec ID : A_AC3
Duration : 1h 34mn
Bit rate mode : Constant
Bit rate : 224 Kbps
Channel(s) : 2 channels
Channel positions : Front: L R
Sampling rate : 48.0 KHz
Bit depth : 16 bits
Compression mode : Lossy
Stream size : 151 MiB (12%)
Default : Yes
Forced : No



Релиз от: &



   Похожие торренты   Торрент   Размер 
В этой теме нет новых непрочитанных сообщений. Крылья России: Перехватчики МиГ-25 и МиГ-31. Лучшие в своём деле (2012) DVDRip от Тorrent-Хzona

13 | 3

1.12 ГБ

В этой теме нет новых непрочитанных сообщений. Крылья России [01-18 из 18] (2008) DVDRip-AVC от Тorrent-Хzona

42 | 16

10.38 ГБ

В этой теме нет новых непрочитанных сообщений. Общее небо. 100 лет ВВС России (2012) DVDRip-AVC

7 | 3

1.42 ГБ

В этой теме нет новых непрочитанных сообщений. Крылья России. Истребители семейства Су-27 производства КНААПО (2004) DVDRip-AVC от Тorrent-Хzona

6 | 3

681.01 МБ

В этой теме нет новых непрочитанных сообщений. Крылья России. Советские самолеты. Фронтовой бомбардировщик Як-28 (2007) DVDRip-AVC от Тorrent-Хzona

12 | 2

1010.23 МБ

В этой теме нет новых непрочитанных сообщений. Общее небо. 100 лет ВВС России (2012) DVD5

2 | 3

3.92 ГБ

В этой теме нет новых непрочитанных сообщений. Крылья России. Звезды Гидроавиасалона 1996-2006 (2006) DVDRip-AVC от Тorrent-Хzona

1 | 4

743.37 МБ




Вы не можете начинать темы
Вы не можете отвечать на сообщения
Вы не можете редактировать свои сообщения
Вы не можете удалять свои сообщения
Вы не можете добавлять вложения

Перейти:  
Для Мосгорсуда, Роскомнадзора и рекламодателей: mosgorsud-torrent[собачка]yandex.ru
 Вход
ppkBB3cker v.2 © 2008-2014 @ PPK
[ Time : 0.033s | 15 Queries | GZIP : Off ]

cron