img image001 image001 image001 image001 image001 image001 image001 image001 image001 image001 image001 image001 image001 image001 image001

Planets Sun Sun Sun
Статистика раздачи
Автор: Снежана | Размер: 1 ГБ | Добавлен: 27 июл 2013
Раздают: 1    Качают: 3
Скачать торрент
Скачать торрент
Описание торрента

СообщениеДобавлено: 27 июл 2013 

#77

Информация о фильме
Название: День Независимости Республики Беларусь: Mинск
Год выхода: 2013
Производство: Белтелерадиокомпания
Страна: Беларусь
Продолжительность программы: 01:17:18
Перевод: Не требуется

Описание:
День независимости Республики Беларусь — главный праздник белорусской государственности, отмечаемый ежегодно 3 июля.
3 июля 1944 года произошло также освобождение Минска, столицы Белоруссии, от немецких войск в ходе Белорусской операции (кодовое название «Багратион»).
С 1991 года День независимости отмечался 27 июля, в день принятия Декларации о суверенитете Белоруссии. 25 августа 1991 года, после Августовских событий в Москве, Белорусская ССР придала декларации о суверенитете республики статус конституционного закона. 10 декабря 1991 года Верховным Советом Белоруссии было ратифицировано Беловежское соглашение, заявлявшее о прекращении существования СССР. Формально независимость была получена 26 декабря 1991 года в связи с распадом СССР.
Решение о праздновании Дня независимости 3 июля, в день освобождения столицы Белоруссии от немецко-фашистских захватчиков, было принято в ходе республиканского референдума в 1996 году.
Главное мероприятие Дня независимости — торжественный военный парад. После окончания официальной части праздника начинаются светские мероприятия. По всей республике проходят празднества и гуляния. Вечером в Минске устраивается праздничный салют.
В День независимости проходят Дни городов в Борисове, Клецке, Рогачёве, Могилёве, Копыле, Березино, Сенно, Городке.

Файл
Кодек: XviD
Качество: DVBRip
Видео: 680x504, 25 к/с, 4:3, 1700 кбит/с
Звук: MP3, 128 кбит/с, 48 кгц, стерео

Format : AVI
Format/Info : Audio Video Interleave
File size : 1.00 GiB
Duration : 1h 17mn
Overall bit rate : 1 859 Kbps
Writing application : VirtualDubMod 1.5.10.2 (build 2540/release)
Writing library : VirtualDubMod build 2540/release

Video
ID : 0
Format : MPEG-4 Visual
Format profile : Advanced Simple@L5
Format settings, BVOP : 2
Format settings, QPel : Yes
Format settings, GMC : No warppoints
Format settings, Matrix : Default (MPEG)
Muxing mode : Packed bitstream
Codec ID : XVID
Codec ID/Hint : XviD
Duration : 1h 17mn
Bit rate : 1 722 Kbps
Width : 680 pixels
Height : 504 pixels
Display aspect ratio : 4:3
Frame rate : 25.000 fps
Color space : YUV
Chroma subsampling : 4:2:0
Bit depth : 8 bits
Scan type : Progressive
Compression mode : Lossy
Bits/(Pixel*Frame) : 0.201
Stream size : 952 MiB (93%)
Writing library : XviD 1.2.1 (UTC 2008-12-04)

Audio
ID : 1
Format : MPEG Audio
Format version : Version 1
Format profile : Layer 3
Mode : Joint stereo
Mode extension : MS Stereo
Codec ID : 55
Codec ID/Hint : MP3
Duration : 1h 17mn
Bit rate mode : Constant
Bit rate : 128 Kbps
Channel(s) : 2 channels
Sampling rate : 48.0 KHz
Compression mode : Lossy
Stream size : 70.8 MiB (7%)
Alignment : Aligned on interleaves
Interleave, duration : 40 ms (1.00 video frame)
Interleave, preload duration : 504 ms




   Похожие торренты   Торрент   Размер 
В этой теме нет новых непрочитанных сообщений. Я люблю Беларусь! Концерт посвященный Дню Независимости Республики Беларусь (Дню Республики) (2012) SATRip от AND01AND

0 | 2

1.76 ГБ

В этой теме нет новых непрочитанных сообщений. Новогоднее поздравление Президента Республики Беларусь Лукашенко А.Г. (2013) DVBRip

0 | 2

108.32 МБ

В этой теме нет новых непрочитанных сообщений. Лукашенко А. Г. - Послание Президента Республики Беларусь белорусскому народу и Национальному Собранию (2013) DVBRip

0 | 1

1.35 ГБ

В этой теме нет новых непрочитанных сообщений. Военный парад и спортивно-молодежное шествие. День Независимости Республики Беларусь (2016) DVB от AND03AND

9 | 3

1.27 ГБ

В этой теме нет новых непрочитанных сообщений. Новогоднее обращение Президента Республики Беларусь А. Г. Лукашенко (2011) DVBRip

2 | 2

40.9 МБ

В этой теме нет новых непрочитанных сообщений. Новогоднее поздравление Президента Республики Беларусь Лукашенко А.Г. (2012) DVBRip

1 | 3

64.01 МБ

В этой теме нет новых непрочитанных сообщений. Военный парад и спортивно-молодежное шествие посвященные Дню Независимости Республики Беларусь (2014) SATRip от AND03AND

5 | 127

1.42 ГБ




Вы не можете начинать темы
Вы не можете отвечать на сообщения
Вы не можете редактировать свои сообщения
Вы не можете удалять свои сообщения
Вы не можете добавлять вложения

Перейти:  
Для Мосгорсуда, Роскомнадзора и рекламодателей: mosgorsud-torrent[собачка]yandex.ru
 Вход
ppkBB3cker v.2 © 2008-2014 @ PPK
[ Time : 0.063s | 15 Queries | GZIP : Off ]

Торрент трекер RUTOR.IN, Не можете зайти на rutor.org? Какой новый адрес рутор? Какое зеркало рутор? Не работает rutor.org и зеркала? Тогда наш торрент специально для вас. Rutor.in неофициальное зеркало rutor. В случае если у Вас заблокирован rutor или вдруг Вы не можете на него зайти, то Вы без труда сможете скачать бесплатно и без рекламы последние новинки кино, игр, сериалов и прочего у нас, на Rutor.in. Не нужно использовать прокси, чтобы зайти на рутор, достаточно воспользоваться нашим ресурсом. Все новые фильмы, игры, сериалы, книги и музыка за 2013 и 2014 годы через торрент бесплатно. Скачивайте фильмы в хорошем качестве, игры для пк, xbox, playstation без регистрации. У нас вы найдете новые Зарубежные сериалы и Русские сериалы 2013, 2014, 2015 годов. Оставайтесь с нами, качайте любимые фильмы, игры, сериалы, книги и музыку.
cron