img image001 image001 image001 image001 image001 image001 image001 image001 image001 image001 image001 image001 image001 image001 image001

Planets Sun Sun Sun
Статистика раздачи
Автор: Снежана | Размер: 1.88 ГБ | Добавлен: 27 июл 2013
Раздают: 32    Качают: 4
Скачать торрент
Скачать торрент
Описание торрента

СообщениеДобавлено: 27 июл 2013 


Инфомация о фильме
Название: BBC. Великие рейды Второй Мировой Войны
Оригинальное название: BBC. Great Raids Of World War II
Год выхода: 2005
Жанр: Документальный, военный, история
Режиссер: Джонатан Мартин
О фильме
Во время Второй мировой войны отдельные диверсионные операции были не менее значимы, чем крупные сражения. В воздухе, на земле и на море эти рейды наносили сокрушительные удары по стратегически важным военным объектам и немецким предприятиям. Люди, выполнявшие эти рискованные задания, отлично понимали, что могут не вернуться назад. Но такова была цена общей победы. Тщательное изучение кинохроники тех лет, интервью с ветеранами и компьютерное моделирование позволило воссоздать подробности этих операций до мельчайших подробностей.

1. Остановить ядерную бомбу Гитлера / Stopping Hitler's Bomb
2. Взорванная тюрьма / Prison Busters
3. Рейд за лучем радара / Radar Beam Raiders
4. Шторм в Сен-Назере / Storm at St Nazaire
5. Диверсанты Кокшейль / Cockleshell Raiders
6. Арктические операции командос / Arctic Commando Assault

Страна: Великобритания
Студия: British Broadcasting Corporation (BBC)
Продолжительность: 6 х ~ 00:23:00
Перевод: Профессиональный(одноголосый,закадровый)
Файл
Формат: MKV
Качество: DVDRip-AVC
Видео: MPEG4 AVC 768 x 576, 25.000 fps, 1700 - 1893 Кбит/с
Звук: AC-3, 2 ch, 192 Кбит/с
Субтитры: Нет

General
Unique ID : 207167116894359273777248319043510388948 (0x9BDAEF75D850CADA84F411AE298AC8D4)
Complete name : D:DownloadsBBC.Great.Raids.Of.World.War.II.2005.x264.DVDRip.(AVC).by.Тorrent-Хzona6. Арктические операции командос.Arctic Commando Assault.2005.x264.DVDRip.(AVC).by.Тorrent-Хzona.mkv
Format : Matroska
Format version : Version 2
File size : 321 MiB
Duration : 23mn 41s
Overall bit rate : 1 893 Kbps
Encoded date : UTC 2013-07-02 05:28:38
Writing application : mkvmerge v6.1.0 ('Old Devil') built on Mar 4 2013 09:10:42
Writing library : libebml v1.3.0 + libmatroska v1.4.0
Video
ID : 1
Format : AVC
Format/Info : Advanced Video Codec
Format profile : High@L4.1
Format settings, CABAC : Yes
Format settings, ReFrames : 5 frames
Codec ID : V_MPEG4/ISO/AVC
Duration : 23mn 41s
Bit rate : 1 700 Kbps
Width : 768 pixels
Height : 576 pixels
Display aspect ratio : 4:3
Frame rate mode : Constant
Frame rate : 25.000 fps
Color space : YUV
Chroma subsampling : 4:2:0
Bit depth : 8 bits
Scan type : Progressive
Bits/(Pixel*Frame) : 0.154
Stream size : 282 MiB (88%)
Writing library : x264 core 130 r2273 b3065e6
Encoding settings : cabac=1 / ref=5 / deblock=1:-2:-2 / analyse=0x3:0x111 / me=umh / subme=9 / psy=1 / psy_rd=0.00:0.10 / mixed_ref=1 / me_range=32 / chroma_me=1 / trellis=2 / 8x8dct=1 / cqm=0 / deadzone=21,11 / fast_pskip=0 / chroma_qp_offset=-1 / threads=6 / lookahead_threads=1 / sliced_threads=0 / nr=0 / decimate=1 / interlaced=0 / bluray_compat=0 / constrained_intra=0 / bframes=5 / b_pyramid=2 / b_adapt=0 / b_bias=0 / direct=1 / weightb=1 / open_gop=0 / weightp=2 / keyint=250 / keyint_min=25 / scenecut=40 / intra_refresh=0 / rc_lookahead=50 / rc=2pass / mbtree=1 / bitrate=1700 / ratetol=1.0 / qcomp=0.60 / qpmin=0 / qpmax=69 / qpstep=4 / cplxblur=20.0 / qblur=0.5 / ip_ratio=1.40 / aq=1:1.00
Default : Yes
Forced : No
Audio
ID : 2
Format : AC-3
Format/Info : Audio Coding 3
Mode extension : CM (complete main)
Format settings, Endianness : Big
Codec ID : A_AC3
Duration : 23mn 41s
Bit rate mode : Constant
Bit rate : 192 Kbps
Channel(s) : 2 channels
Channel positions : Front: L R
Sampling rate : 48.0 KHz
Bit depth : 16 bits
Compression mode : Lossy
Stream size : 32.5 MiB (10%)
Default : Yes
Forced : No



Релиз от: &



   Похожие торренты   Торрент   Размер 
В этой теме нет новых непрочитанных сообщений. NG: Великие рейды 2-й Мировой Войны / WWII's Greatest Raids (2014) HDTVRip 720p

121 | 26

6.87 ГБ

В этой теме нет новых непрочитанных сообщений. BBC: Гладиаторы Второй Мировой Войны. Выпуск 4 / Gladiators of World War II [01-03 из 03] (2001) DVDRip от Torrent-Xzona

3 | 7

2.05 ГБ

В этой теме нет новых непрочитанных сообщений. BBC: Гладиаторы второй мировой войны. Выпуск 2 / BBC: Gladiators of World War II [01-03 из 03 серий] (2001) DVDRip от Torrent-Xzona

5 | 7

2.05 ГБ

В этой теме нет новых непрочитанных сообщений. Великие боевые машины Второй Мировой: Танки союзников / The Great Fighting Machines of World War 2: Tanks (1990) DVDRip

8 | 12

745.16 МБ

В этой теме нет новых непрочитанных сообщений. Великие чудеса света. Великие творения людей / Great Wonders of the World. Wonders of Man and Nature [02] (2006) DVDRip от Torrent-Xzona

9 | 9

700.28 МБ

В этой теме нет новых непрочитанных сообщений. Великие чудеса света. Чудеса природы / Great Wonders of the World. Symphony of Wonders [01] (2006) DVDRip от Torrent-Xzona

7 | 3

699.96 МБ

В этой теме нет новых непрочитанных сообщений. ВВС: Оружие второй мировой войны / BBC: Weapons Of World War II (2003) DVDRip от Кинозал.ТВ

150 | 7

3.71 ГБ




Вы не можете начинать темы
Вы не можете отвечать на сообщения
Вы не можете редактировать свои сообщения
Вы не можете удалять свои сообщения
Вы не можете добавлять вложения

Перейти:  
Для Мосгорсуда, Роскомнадзора и рекламодателей: mosgorsud-torrent[собачка]yandex.ru
 Вход
ppkBB3cker v.2 © 2008-2014 @ PPK
[ Time : 0.067s | 15 Queries | GZIP : Off ]

Торрент трекер RUTOR.IN, Не можете зайти на rutor.org? Какой новый адрес рутор? Какое зеркало рутор? Не работает rutor.org и зеркала? Тогда наш торрент специально для вас. Rutor.in неофициальное зеркало rutor. В случае если у Вас заблокирован rutor или вдруг Вы не можете на него зайти, то Вы без труда сможете скачать бесплатно и без рекламы последние новинки кино, игр, сериалов и прочего у нас, на Rutor.in. Не нужно использовать прокси, чтобы зайти на рутор, достаточно воспользоваться нашим ресурсом. Все новые фильмы, игры, сериалы, книги и музыка за 2013 и 2014 годы через торрент бесплатно. Скачивайте фильмы в хорошем качестве, игры для пк, xbox, playstation без регистрации. У нас вы найдете новые Зарубежные сериалы и Русские сериалы 2013, 2014, 2015 годов. Оставайтесь с нами, качайте любимые фильмы, игры, сериалы, книги и музыку.