img image001 image001 image001 image001 image001 image001 image001 image001 image001 image001 image001 image001 image001 image001 image001

Planets Sun Sun Sun
Статистика раздачи
Автор: Снежана | Размер: 11.57 ГБ | Добавлен: 27 июл 2013
Раздают: 1    Качают: 3
Скачать торрент
Скачать торрент
Описание торрента

СообщениеДобавлено: 27 июл 2013 

Короли бездорожья (Внедорожный тюнинг) / Offroad Overhaul (13 выпусков)

Год выпуска: 2012
Страна: США
Жанр: документальный, познавательный
Продолжительность: ~00:18:00 выпуск
Перевод: Студийный (одноголосый закадровый)
Русские субтитры: нет

Режиссер: Джон Аронсон / John Aronson

Описание: Добро пожаловать на программу "Внедорожный тюнинг". Каждую неделю специалисты по тюнингу объезжают различные автоклубы и ищут достойного человека, чтобы превратить его машину в настоящего монстра, способного пробраться по любому ландшафту…
Сэмпл: http://www.sendspace.com/file/epkgud

качество: HDTVRip
формат: MPEG-PS
Видео: MPEG2 Video, 720x576 (16:9) - анаморф, 25.00fps, ~6144, 0.593 bit/pixel
Аудио: MPEG Audio, 48000Hz, 2/0 (L,R) stereo, 192 Kbps

Выпуск 01:

Джип Шевроле Сильверадо 2005.

Выпуск 02:

Джип Форд Ф-350 (2005).

Выпуск 03:

Джип Си-Джей 5 (1973).

Выпуск 04:

Джип Вранглер Ти Джей 1998.

Выпуск 05:

Джип Пикап ДжиМСи2-500 (2006).

Выпуск 06:

Джип Вранглер 2006.

Выпуск 07:

Джип Вранглер Анлимитед 2011.

Выпуск 08:

Джип Тойота ФД Крузер 2010.

Выпуск 09:

Джип Вранглер Рубикон 2007.

Выпуск 10:

Джип Додж Пауэр Вэйгон 2008.

Выпуск 11:

Джип Шевроле Аваланч 2001.

Выпуск 12:

Джип Шевроле Блайзер К-10 (1984).

Выпуск 13:

Джип Ти-Джей 1998.

Полное имя : G:DVDВнедорожный тюнинг (2012)\01-Джип Шевроле Сильверадо 2005.mpg
Формат : MPEG-PS
Размер файла : 862 Мбайт
Продолжительность : 18 м.
Общий поток : 6422 Кбит/сек

Видео
Идентификатор : 224 (0xE0)
Формат : MPEG Video
Версия формата : Version 2
Профиль формата : Main@Main
Параметр BVOP формата : Да
Параметр матрицы формата : По умолчанию
Продолжительность : 18 м.
Вид битрейта : Переменный
Битрейт : 6144 Кбит/сек
Ширина : 720 пикселей
Высота : 576 пикселей
Соотношение сторон : 16:9
Частота кадров : 25,000 кадров/сек
Стандарт вещания : PAL
Цветовое пространство : YUV
Субдискретизация насыщенности : 4:2:0
Битовая глубина : 8 бит
Тип развёртки : Прогрессивная
Метод сжатия : С потерями
Бит/(Пиксели*Кадры) : 0.593
Размер потока : 819 Мбайт (95%)

Аудио
Идентификатор : 192 (0xC0)
Формат : MPEG Audio
Версия формата : Version 1
Профиль формата : Layer 2
Продолжительность : 18 м.
Вид битрейта : Постоянный
Битрейт : 192 Кбит/сек
Каналы : 2 канала
Частота : 48,0 КГц
Метод сжатия : С потерями
Размер потока : 25,8 Мбайт (3%)






   Похожие торренты   Торрент   Размер 
В этой теме нет новых непрочитанных сообщений. Внедорожный тюнинг / Offroad Overhaul [12 выпусков] (2011) HDTVRip

7 | 1

11.49 ГБ

В этой теме нет новых непрочитанных сообщений. Наука 2.0. EXперименты [10 выпусков] (2012-2013) HDTVRip-AVC от -=HD-NET=-

35 | 7

3.82 ГБ

В этой теме нет новых непрочитанных сообщений. Мегазаводы: Грузовики Мерседес / Megafactories: Mercedes Overhaul (2011) HDTVRip 720p | P1

135 | 15

1.03 ГБ

В этой теме нет новых непрочитанных сообщений. Доктор Дэвид Дьюк / Dr David Duke [16 выпусков] (2012) HDTVRip 720p

131 | 8

2.93 ГБ

В этой теме нет новых непрочитанных сообщений. Тюнинг автомобилей (2006-2012) PDF

14 | 4

2.85 ГБ

В этой теме нет новых непрочитанных сообщений. Тюнинг автомобилей №9 (Сентябрь) (2012) PDF

7 | 5

96.72 МБ

В этой теме нет новых непрочитанных сообщений. Тюнинг автомобилей № 3 (Март) (2012) PDF

4 | 2

74.49 МБ




Вы не можете начинать темы
Вы не можете отвечать на сообщения
Вы не можете редактировать свои сообщения
Вы не можете удалять свои сообщения
Вы не можете добавлять вложения

Перейти:  
Для Мосгорсуда, Роскомнадзора и рекламодателей: mosgorsud-torrent[собачка]yandex.ru
 Вход
ppkBB3cker v.2 © 2008-2014 @ PPK
[ Time : 0.552s | 14 Queries | GZIP : Off ]

Торрент трекер RUTOR.IN, Не можете зайти на rutor.org? Какой новый адрес рутор? Какое зеркало рутор? Не работает rutor.org и зеркала? Тогда наш торрент специально для вас. Rutor.in неофициальное зеркало rutor. В случае если у Вас заблокирован rutor или вдруг Вы не можете на него зайти, то Вы без труда сможете скачать бесплатно и без рекламы последние новинки кино, игр, сериалов и прочего у нас, на Rutor.in. Не нужно использовать прокси, чтобы зайти на рутор, достаточно воспользоваться нашим ресурсом. Все новые фильмы, игры, сериалы, книги и музыка за 2013 и 2014 годы через торрент бесплатно. Скачивайте фильмы в хорошем качестве, игры для пк, xbox, playstation без регистрации. У нас вы найдете новые Зарубежные сериалы и Русские сериалы 2013, 2014, 2015 годов. Оставайтесь с нами, качайте любимые фильмы, игры, сериалы, книги и музыку.