img image001 image001 image001 image001 image001 image001 image001 image001 image001 image001 image001 image001 image001 image001 image001

Planets Sun Sun Sun
Статистика раздачи
Автор: Снежана | Размер: 701.48 МБ | Добавлен: 27 июл 2013
Раздают: 233    Качают: 4
Скачать торрент
Скачать торрент
Описание торрента

СообщениеДобавлено: 27 июл 2013 


Инфомация о фильме
Оригинальное название: Вода 2. Тайна живой воды
Год выхода: 2007
Жанр: Документальный
Режиссер: Юрий Власов
О фильме
"Вода-2. Тайна живой воды" -- долгожданное продолжение обладателя трех премий Тэффи - фильма "Вода".
НА этот раз глубоко исследованы факты, о которых, как утверждает продюсер проекта Саида Медведева, не было смысла рассказывать в первом фильме. Например, о том, почему не следует пить чай с человеком, который вас не любит, что такое милосердные лекарства и как может повлиять на судьбу целого народа "вода гнева".
Это яркий и динамичный фильм о даре, который мы называем жизнью, и который был доверен единственному в мире веществу, способному его сохранить - воде. Не случайно лидирующая марка природной воды стала инициатором появления в Украине фильма "Вода-2". Ведь вода помнит свое природное происхождение и наделена особыми способностями. Она не только заряжается эмоциями от всего, что встречает на своем пути. Она является источником нашей энергетики и даже может исцелять. Тем более, что человеческий организм почти на два трети состоит из жидкости, мозг - на 77 %, мускулы - на 80%.
О своих научных исследованиях свойств водной стихии рассказывают всемирно известные ученые из Японии, США, Великобритании, Австрии, Израиля, России, Казахстана. А японский исследователь Масару Эмото демонстрирует фотографии эмоций воды. Форма образующихся при этом кристаллов - от роскошной геометрии до полного хаоса - изменялась в зависимости от того, что именно было услышано: комплимент или оскорбление, музыка Вивальди или тяжелый рок.
Перспективы, открывающиеся в свете новейших изучений структуры воды, просто колоссальны: благодаря ее памяти мы сможем лечить самих себя и планету, сможем управлять погодой и предсказывать поведение стихии. В фильме нас ожидает еще немало сюрпризов на пути познаний тайн нашей давней знакомой, о которой, как оказывается, мы совсем ничего не знаем.


Страна: Россия
Студия: ПЦ "Мастерская"
Продолжительность: 01:51:47
Перевод: Оригинал
Файл
Формат: MKV
Качество: DVDRip-AVC
Видео: MPEG4 AVC 1024 x 576, 25.000 fps, 1700 - 1894 Кбит/с
Звук: AC-3, 2 ch, 192 Кбит/с
Субтитры: Нет

General
Unique ID : 187788539436968322880793504716665585838 (0x8D46C1D35DB5DA21BFCF56B8017300AE)
Complete name : D:DownloadsVoda.2. 2007.x264.DVDRip.(AVC).by.Тorrent-Хzona.mkv
Format : Matroska
Format version : Version 2
File size : 701 MiB
Duration : 51mn 47s
Overall bit rate : 1 894 Kbps
Encoded date : UTC 2013-06-29 19:50:45
Writing application : mkvmerge v6.1.0 ('Old Devil') built on Mar 4 2013 09:10:42
Writing library : libebml v1.3.0 + libmatroska v1.4.0
Video
ID : 1
Format : AVC
Format/Info : Advanced Video Codec
Format profile : High@L4.1
Format settings, CABAC : Yes
Format settings, ReFrames : 5 frames
Codec ID : V_MPEG4/ISO/AVC
Duration : 51mn 47s
Bit rate : 1 700 Kbps
Width : 1 024 pixels
Height : 576 pixels
Display aspect ratio : 16:9
Frame rate mode : Constant
Frame rate : 25.000 fps
Color space : YUV
Chroma subsampling : 4:2:0
Bit depth : 8 bits
Scan type : Progressive
Bits/(Pixel*Frame) : 0.115
Stream size : 616 MiB (88%)
Writing library : x264 core 130 r2273 b3065e6
Encoding settings : cabac=1 / ref=5 / deblock=1:-2:-2 / analyse=0x3:0x111 / me=umh / subme=9 / psy=1 / psy_rd=0.00:0.10 / mixed_ref=1 / me_range=32 / chroma_me=1 / trellis=2 / 8x8dct=1 / cqm=0 / deadzone=21,11 / fast_pskip=0 / chroma_qp_offset=-1 / threads=6 / lookahead_threads=1 / sliced_threads=0 / nr=0 / decimate=1 / interlaced=0 / bluray_compat=0 / constrained_intra=0 / bframes=5 / b_pyramid=2 / b_adapt=0 / b_bias=0 / direct=1 / weightb=1 / open_gop=0 / weightp=2 / keyint=250 / keyint_min=25 / scenecut=40 / intra_refresh=0 / rc_lookahead=50 / rc=2pass / mbtree=1 / bitrate=1700 / ratetol=1.0 / qcomp=0.60 / qpmin=0 / qpmax=69 / qpstep=4 / cplxblur=20.0 / qblur=0.5 / ip_ratio=1.40 / aq=1:1.00
Default : Yes
Forced : No
Audio
ID : 2
Format : AC-3
Format/Info : Audio Coding 3
Mode extension : CM (complete main)
Format settings, Endianness : Big
Codec ID : A_AC3
Duration : 51mn 47s
Bit rate mode : Constant
Bit rate : 192 Kbps
Channel(s) : 2 channels
Channel positions : Front: L R
Sampling rate : 48.0 KHz
Bit depth : 16 bits
Compression mode : Lossy
Stream size : 71.1 MiB (10%)
Default : Yes
Forced : No



Релиз от: &



   Похожие торренты   Торрент   Размер 
В этой теме нет новых непрочитанных сообщений. Вода (2006) DVDRip-AVC от Тorrent-Хzona

42 | 4

1.1 ГБ

В этой теме нет новых непрочитанных сообщений. Хищные воды / Черная вода / Black Water (2007) DVDRip от Generalfilm

49 | 7

705.59 МБ

В этой теме нет новых непрочитанных сообщений. Тайна королевы Анны или мушкетеры 30 лет спустя (1993) DVDRip-AVC от Тorrent-Хzona

138 | 12

2.37 ГБ

В этой теме нет новых непрочитанных сообщений. Загадки Библии: Тайна исхода / Riddles of the Bible: Exodus Revealed 2008 DVDRip-AVC от Тorrent-Хzona

0 | 7

694.74 МБ

В этой теме нет новых непрочитанных сообщений. Принцесса-лебедь 2: Тайна замка / The Swan Princess and the Secret of the Castle (1997) DVDRip-AVC от Тorrent-Хzona

133 | 15

1.06 ГБ

В этой теме нет новых непрочитанных сообщений. BBC: Живой мир - Смертоносные змеи Индии / BBC: The Natural World - One Million Snake Bites (2011) HDRip-AVC от Тorrent-Хzona

6 | 4

709.91 МБ

В этой теме нет новых непрочитанных сообщений. Военная тайна [эфир от 19.11] (2012) SATRemux от Тorrent-Хzona

1 | 3

2.01 ГБ




Вы не можете начинать темы
Вы не можете отвечать на сообщения
Вы не можете редактировать свои сообщения
Вы не можете удалять свои сообщения
Вы не можете добавлять вложения

Перейти:  
Для Мосгорсуда, Роскомнадзора и рекламодателей: mosgorsud-torrent[собачка]yandex.ru
 Вход
ppkBB3cker v.2 © 2008-2014 @ PPK
[ Time : 0.088s | 16 Queries | GZIP : Off ]

Торрент трекер RUTOR.IN, Не можете зайти на rutor.org? Какой новый адрес рутор? Какое зеркало рутор? Не работает rutor.org и зеркала? Тогда наш торрент специально для вас. Rutor.in неофициальное зеркало rutor. В случае если у Вас заблокирован rutor или вдруг Вы не можете на него зайти, то Вы без труда сможете скачать бесплатно и без рекламы последние новинки кино, игр, сериалов и прочего у нас, на Rutor.in. Не нужно использовать прокси, чтобы зайти на рутор, достаточно воспользоваться нашим ресурсом. Все новые фильмы, игры, сериалы, книги и музыка за 2013 и 2014 годы через торрент бесплатно. Скачивайте фильмы в хорошем качестве, игры для пк, xbox, playstation без регистрации. У нас вы найдете новые Зарубежные сериалы и Русские сериалы 2013, 2014, 2015 годов. Оставайтесь с нами, качайте любимые фильмы, игры, сериалы, книги и музыку.