img image001 image001 image001 image001 image001 image001 image001 image001 image001 image001 image001 image001 image001 image001 image001

Planets Sun Sun Sun
Статистика раздачи
Автор: Снежана | Размер: 818.52 МБ | Добавлен: 27 июл 2013
Раздают: 3    Качают: 2
Скачать торрент
Скачать торрент
Описание торрента

СообщениеДобавлено: 27 июл 2013 


Информация о фильме
Инфомация о фильме
Название: Путь сефардов
Оригинальное название: La Route Des Sefarades
Год выхода: 2007
Жанр: Документальный, история
Режиссер: Густаво Кортес Буэно
О фильме
История о том, как складывалась судьба испанских евреев–сефардов в эпоху мавританского правления, как в Иберии появились новообращённые, и с чего начиналась священная инквизиция. В хрониках Аль-Рази рассказывается, что легендарный король Севильи по имени Геспан, участовалв в оасаде Иерусалима в 586 году до н.э., поддерживая Навуходоносора. Они разрушили храм Соломона и превратили евреев в рабов. Возвратившись в Севилью, король привез с собой знаменитый стол для хлебов - это был его трофей. В хрониках говорится, что арабы завоевали Иберийский полуостров. В 711 году они обнаружили этот стол Соломона, за которым присматривала еврейская община, утверждавшая, что пропавший стол из царства Иудейского. Если легенда говорит правду, то первая еврейская община на Иберийском полуострове существовала уже в VI веке до н.э.
Страна: Испания
Студия: Diesel Communicacio, Polygone Onze, Papalleles Productions
Продолжительность: 01:00:00
Перевод: Профессиональный(одноголосый,закадровый)
Файл
Формат: MKV
Качество: DVDRip-AVC
Видео: MPEG4 AVC 1024 x 576, 25.000 fps, 1700 - 1892 Кбит/с
Звук: AC-3, 2 ch, 192 Кбит/с
Субтитры: Нет

General
Unique ID : 179848377533447734607712565931970245048 (0x874D899E75017A4695B7F54231FDB1B8)
Complete name : D:DownloadsСделанные фильмыLa.Route.Des.Sefarades.2007.x264.HDTVRip.(AVC).by.Тorrent-Хzona.mkv
Format : Matroska
Format version : Version 2
File size : 819 MiB
Duration : 1h 0mn
Overall bit rate : 1 892 Kbps
Movie name : La Route Des Sefarades
Encoded date : UTC 2013-07-03 22:01:18
Writing application : mkvmerge v6.1.0 ('Old Devil') built on Mar 4 2013 09:10:42
Writing library : libebml v1.3.0 + libmatroska v1.4.0
Video
ID : 1
Format : AVC
Format/Info : Advanced Video Codec
Format profile : High@L4.1
Format settings, CABAC : Yes
Format settings, ReFrames : 5 frames
Codec ID : V_MPEG4/ISO/AVC
Duration : 1h 0mn
Bit rate : 1 700 Kbps
Width : 1 024 pixels
Height : 576 pixels
Display aspect ratio : 16:9
Frame rate mode : Constant
Frame rate : 25.000 fps
Color space : YUV
Chroma subsampling : 4:2:0
Bit depth : 8 bits
Scan type : Progressive
Bits/(Pixel*Frame) : 0.115
Stream size : 719 MiB (88%)
Writing library : x264 core 130 r2273 b3065e6
Encoding settings : cabac=1 / ref=5 / deblock=1:-2:-2 / analyse=0x3:0x111 / me=umh / subme=9 / psy=1 / psy_rd=0.00:0.10 / mixed_ref=1 / me_range=32 / chroma_me=1 / trellis=2 / 8x8dct=1 / cqm=0 / deadzone=21,11 / fast_pskip=0 / chroma_qp_offset=-1 / threads=6 / lookahead_threads=1 / sliced_threads=0 / nr=0 / decimate=1 / interlaced=0 / bluray_compat=0 / constrained_intra=0 / bframes=5 / b_pyramid=2 / b_adapt=0 / b_bias=0 / direct=1 / weightb=1 / open_gop=0 / weightp=2 / keyint=250 / keyint_min=25 / scenecut=40 / intra_refresh=0 / rc_lookahead=50 / rc=2pass / mbtree=1 / bitrate=1700 / ratetol=1.0 / qcomp=0.60 / qpmin=0 / qpmax=69 / qpstep=4 / cplxblur=20.0 / qblur=0.5 / ip_ratio=1.40 / aq=1:1.00
Default : Yes
Forced : No
Audio
ID : 2
Format : AC-3
Format/Info : Audio Coding 3
Mode extension : CM (complete main)
Format settings, Endianness : Big
Codec ID : A_AC3
Duration : 1h 0mn
Bit rate mode : Constant
Bit rate : 192 Kbps
Channel(s) : 2 channels
Channel positions : Front: L R
Sampling rate : 48.0 KHz
Bit depth : 16 bits
Compression mode : Lossy
Delay relative to video : 67ms
Stream size : 83.1 MiB (10%)
Title : Dolby Digital 2.0
Language : Russian
Default : Yes
Forced : No



Релиз от: &



   Похожие торренты   Торрент   Размер 
В этой теме нет новых непрочитанных сообщений. Проклятый путь / Road to Perdition (2002) HDRip от Torrent-Xzona | КПК

12 | 5

400.51 МБ

В этой теме нет новых непрочитанных сообщений. Проклятый путь / Road to Perdition (2002) HDRip от Torrent-Xzona | КПК

3 | 1

484.89 МБ

В этой теме нет новых непрочитанных сообщений. Ликвидация [01-14 из 14] (2007) DVDRip от Torrent-Xzona | КПК

1030 | 89

4.08 ГБ

В этой теме нет новых непрочитанных сообщений. Мастер - 33 жизни (2007) DVDRip от Torrent-Xzona

4 | 3

699.96 МБ

В этой теме нет новых непрочитанных сообщений. Стрелок / Shooter (2007) HDRip от Torrent-Xzona | КПК | P

23 | 4

398.65 МБ

В этой теме нет новых непрочитанных сообщений. Трансформеры / Transformers (2007) HDRip от Torrent-Xzona | КПК | D

31 | 3

400.55 МБ

В этой теме нет новых непрочитанных сообщений. Перелом / Fracture (2007) HDRip от Torrent-Xzona | КПК | P

8 | 4

399.75 МБ




Вы не можете начинать темы
Вы не можете отвечать на сообщения
Вы не можете редактировать свои сообщения
Вы не можете удалять свои сообщения
Вы не можете добавлять вложения

Перейти:  
Для Мосгорсуда, Роскомнадзора и рекламодателей: mosgorsud-torrent[собачка]yandex.ru
 Вход
ppkBB3cker v.2 © 2008-2014 @ PPK
[ Time : 0.040s | 14 Queries | GZIP : Off ]

Торрент трекер RUTOR.IN, Не можете зайти на rutor.org? Какой новый адрес рутор? Какое зеркало рутор? Не работает rutor.org и зеркала? Тогда наш торрент специально для вас. Rutor.in неофициальное зеркало rutor. В случае если у Вас заблокирован rutor или вдруг Вы не можете на него зайти, то Вы без труда сможете скачать бесплатно и без рекламы последние новинки кино, игр, сериалов и прочего у нас, на Rutor.in. Не нужно использовать прокси, чтобы зайти на рутор, достаточно воспользоваться нашим ресурсом. Все новые фильмы, игры, сериалы, книги и музыка за 2013 и 2014 годы через торрент бесплатно. Скачивайте фильмы в хорошем качестве, игры для пк, xbox, playstation без регистрации. У нас вы найдете новые Зарубежные сериалы и Русские сериалы 2013, 2014, 2015 годов. Оставайтесь с нами, качайте любимые фильмы, игры, сериалы, книги и музыку.