img image001 image001 image001 image001 image001 image001 image001 image001 image001 image001 image001 image001 image001 image001 image001

Planets Sun Sun Sun
Статистика раздачи
Автор: Снежана | Размер: 1018.19 МБ | Добавлен: 27 июл 2013
Раздают: 39    Качают: 7
Скачать торрент
Скачать торрент
Описание торрента

СообщениеДобавлено: 27 июл 2013 


Инфомация о фильме
Оригинальное название: Авианесущие корабли Советского Союза
Год выхода: 2012
Жанр: Документальный, история, вооружение, флот, авиация
Режиссер: Константин Поляков
О фильме
История создания авианесущих кораблей нашей страны полна интриг, тайн и роковых ошибок. Идея создания корабля, способного нести на борту самолёты, возникала в Советском Союзе ещё в 20 годах прошлого века. Но по разным причинам к разработке и строительству подобного проекта приступили только в конце 50-х. Почему так долго у великой морской державы - СССР - долгое время не было авианосцев, хотя их имели многие страны мира? Поначалу это были корабли, способные нести на борту только вертолёты. В дальнейшем различные факторы привели к появлению тяжёлых крейсеров, способных нести как вертолёты, так и вертикально взлетающие самолёты. И только в начале 80-х в состав советского флота вошли корабли, способные нести различные типы авиационной техники. Фильм расскажет об истории авианосцев - от первых взлетов самолетов с кораблей, от вертолетоносцев «Москва» и «Ленинград», авианесущих кораблей «Киев», «Минск» и «Баку» до ТАКР «Адмирал флота Советского Союза Кузнецов».
Страна: Россия
Студия: Студия «Крылья России»
Продолжительность: 2 x ~ 00:38:00
Перевод: Оригинал
Файл
Формат: MKV
Качество: DVDRip-AVC
Видео: MPEG4 AVC 768 x 576, 25.000 fps, 1700 - 1893 Кбит/с
Звук: AC-3, 2 ch, 192 Кбит/с
Субтитры: Нет

General
Unique ID : 177067010273573469013369126966680734471 (0x8535DDA025A3BF1B81B2934EDE39CB07)
Complete name : D:DownloadsAvionosci.2012.x264.DVDRip.(AVC).by.Тorrent-Хzona1.Film.mkv
Format : Matroska
Format version : Version 2
File size : 512 MiB
Duration : 37mn 50s
Overall bit rate : 1 893 Kbps
Encoded date : UTC 2013-07-05 05:15:27
Writing application : mkvmerge v6.1.0 ('Old Devil') built on Mar 4 2013 09:10:42
Writing library : libebml v1.3.0 + libmatroska v1.4.0
Video
ID : 1
Format : AVC
Format/Info : Advanced Video Codec
Format profile : High@L4.1
Format settings, CABAC : Yes
Format settings, ReFrames : 5 frames
Codec ID : V_MPEG4/ISO/AVC
Duration : 37mn 50s
Bit rate : 1 700 Kbps
Width : 768 pixels
Height : 576 pixels
Display aspect ratio : 4:3
Frame rate mode : Constant
Frame rate : 25.000 fps
Color space : YUV
Chroma subsampling : 4:2:0
Bit depth : 8 bits
Scan type : Progressive
Bits/(Pixel*Frame) : 0.154
Stream size : 450 MiB (88%)
Writing library : x264 core 130 r2273 b3065e6
Encoding settings : cabac=1 / ref=5 / deblock=1:-2:-2 / analyse=0x3:0x111 / me=umh / subme=9 / psy=1 / psy_rd=0.00:0.10 / mixed_ref=1 / me_range=32 / chroma_me=1 / trellis=2 / 8x8dct=1 / cqm=0 / deadzone=21,11 / fast_pskip=0 / chroma_qp_offset=-1 / threads=6 / lookahead_threads=1 / sliced_threads=0 / nr=0 / decimate=1 / interlaced=0 / bluray_compat=0 / constrained_intra=0 / bframes=5 / b_pyramid=2 / b_adapt=0 / b_bias=0 / direct=1 / weightb=1 / open_gop=0 / weightp=2 / keyint=250 / keyint_min=25 / scenecut=40 / intra_refresh=0 / rc_lookahead=50 / rc=2pass / mbtree=1 / bitrate=1700 / ratetol=1.0 / qcomp=0.60 / qpmin=0 / qpmax=69 / qpstep=4 / cplxblur=20.0 / qblur=0.5 / ip_ratio=1.40 / aq=1:1.00
Default : Yes
Forced : No
Audio
ID : 2
Format : AC-3
Format/Info : Audio Coding 3
Mode extension : CM (complete main)
Format settings, Endianness : Big
Codec ID : A_AC3
Duration : 37mn 50s
Bit rate mode : Constant
Bit rate : 192 Kbps
Channel(s) : 2 channels
Channel positions : Front: L R
Sampling rate : 48.0 KHz
Bit depth : 16 bits
Compression mode : Lossy
Stream size : 52.0 MiB (10%)
Default : Yes
Forced : No



Релиз от: &



   Похожие торренты   Торрент   Размер 
В этой теме нет новых непрочитанных сообщений. Авианесущие корабли Советского Союза (2012) SATRip

18 | 2

1.1 ГБ

В этой теме нет новых непрочитанных сообщений. Корабли-призраки Великих озер / Ghost Ships of the Great Lakes (2011) HDTVRip-AVC от Тorrent-Хzona

21 | 5

592.57 МБ

В этой теме нет новых непрочитанных сообщений. Марши Российской Империи и Советского Союза (2008) MP3

95 | 6

231.33 МБ

В этой теме нет новых непрочитанных сообщений. Сталин. Вождь Советского Союза [1-4] (2006) CAMRip

28 | 3

2.54 ГБ

В этой теме нет новых непрочитанных сообщений. Государственные гимны Советского Союза (СССР) и союзных республик (1996) MP3

4 | 9

115.1 МБ

В этой теме нет новых непрочитанных сообщений. Сборник - Военные оркестры. Марши Российской Империи и Советского Союза (2008) MP3

212 | 9

231.63 МБ

В этой теме нет новых непрочитанных сообщений. Тайные знаки. Пророк Советского Союза. Вольф Мессинг (2009) IPTVRip от Generalfilm

26 | 9

528.36 МБ




Вы не можете начинать темы
Вы не можете отвечать на сообщения
Вы не можете редактировать свои сообщения
Вы не можете удалять свои сообщения
Вы не можете добавлять вложения

Перейти:  
Для Мосгорсуда, Роскомнадзора и рекламодателей: mosgorsud-torrent[собачка]yandex.ru
 Вход
ppkBB3cker v.2 © 2008-2014 @ PPK
[ Time : 2.163s | 14 Queries | GZIP : Off ]

Торрент трекер RUTOR.IN, Не можете зайти на rutor.org? Какой новый адрес рутор? Какое зеркало рутор? Не работает rutor.org и зеркала? Тогда наш торрент специально для вас. Rutor.in неофициальное зеркало rutor. В случае если у Вас заблокирован rutor или вдруг Вы не можете на него зайти, то Вы без труда сможете скачать бесплатно и без рекламы последние новинки кино, игр, сериалов и прочего у нас, на Rutor.in. Не нужно использовать прокси, чтобы зайти на рутор, достаточно воспользоваться нашим ресурсом. Все новые фильмы, игры, сериалы, книги и музыка за 2013 и 2014 годы через торрент бесплатно. Скачивайте фильмы в хорошем качестве, игры для пк, xbox, playstation без регистрации. У нас вы найдете новые Зарубежные сериалы и Русские сериалы 2013, 2014, 2015 годов. Оставайтесь с нами, качайте любимые фильмы, игры, сериалы, книги и музыку.