img image001 image001 image001 image001 image001 image001 image001 image001 image001 image001 image001 image001 image001 image001 image001

Planets Sun Sun Sun
Статистика раздачи
Автор: Снежана | Размер: 3.57 ГБ | Добавлен: 27 июл 2013
Раздают: 20    Качают: 6
Скачать торрент
Скачать торрент
Описание торрента

СообщениеДобавлено: 27 июл 2013 


Инфомация о фильме
Название: National Geographic: Киты, киты-убийцы, касатки, неукротимые дельфины, жемчужины
Год выхода: 2004
Жанр: Документальный, научно-популярный




Документальный фильм об удивительной морской природе. Новый взгляд на легендарного хищника. Будучи героями древних морских баек и современных кинофильмов, касатки всегда вселяли в сердца людей чувства страха и симпатии. Научные исследования в дикой природе помогли составить более реалистичный портрет этих млекопитающих с прекрасно развитым интеллектом, живущих в сообществе со сложным кодексом правил. Касатки всегда вселяли в сердца людей чувства страха и симпатии. Научные исследования в дикой природе помогли составить более реалистичный портрет этих млекопитающих с прекрасно развитым интеллектом, живущих в сообществе со сложным кодексом правил. Разнообразная живность в морском заповеднике бухты Монтерей в Калифорнии привлекает касаток, по праву считающихся главными хищниками в мировом океане. Они относятся к так называемым "проходящим" особям, так как из всех плотоядных стайных животных на Земле, они наиболее неуловимы и трудны для изучения. Известные своим безграничным изяществом и игривой энергией, дельфины в неволе всегда рады доставлять удовольствие зрителям своими трюками. Но в родной среде, в открытом море, эти восхититетельные млекопитающие проявляют малоизвестные нам черты характера,становясь могущественными, хитрыми и беспощадными животными. Станьте свидетелями того, как группа дельфинов координирует безжалостную атаку на крупный косяк рыб. На ваших глазах самый крупный, самый свирепый представитель семейства дельфинов - касатка, способная плыть со скоростью 48 км/ч, поймает свою следующую жертву. Понаблюдайте, как дельфины с младенчества учатся, ловя рыбу, планировать там где воды всего несколько дюймов. Вы будете удивлены, когда исследуете тайную сторону жизни этих общительных и,в то же время, агрессивных созданий в фильме `Неукротимые дельфины`.
В создании фильмов использованы уникальные архивные материалы National Geographic.





Содержание:
Часть 1. Киты.
Часть 2. Киты-убийцы
Часть 3. Касатки
Часть 4. Неукротимые дельфины
Часть 5. Жемчужины карибского моря
Страна: США
Продолжительность: ~ 04:30:00
Перевод: Профессиональный (одноголосый)
Студия: National Geographic
Файл
Формат: MKV
Качество: DVDRip-AVC
Видео: MPEG4 AVC 768 x 576, 25.000 fps, 1700 - 1894 Кбит/с
Звук: AC-3, 2 ch, 192 Кбит/с
Субтитры: Нет


General
Unique ID : 177276891731158092209851940660357318413 (0x855E499492AC1E0F977A27048E73470D)
Complete name : C:DownloadsГотовые фильмыKitji ubiyzi.Delfinji.2004.DVDRip-AVC от Тorrent-Хzona.mkv
Format : Matroska
Format version : Version 2
File size : 3.57 GiB
Duration : 4h 29mn
Overall bit rate : 1 894 Kbps
Encoded date : UTC 2013-06-30 03:28:13
Writing application : mkvmerge v6.1.0 ('Old Devil') built on Mar 4 2013 09:10:42
Writing library : libebml v1.3.0 + libmatroska v1.4.0
Video
ID : 1
Format : AVC
Format/Info : Advanced Video Codec
Format profile : High@L4.1
Format settings, CABAC : Yes
Format settings, ReFrames : 5 frames
Codec ID : V_MPEG4/ISO/AVC
Duration : 4h 29mn
Bit rate : 1 700 Kbps
Width : 768 pixels
Height : 576 pixels
Display aspect ratio : 4:3
Frame rate mode : Constant
Frame rate : 25.000 fps
Color space : YUV
Chroma subsampling : 4:2:0
Bit depth : 8 bits
Scan type : Progressive
Bits/(Pixel*Frame) : 0.154
Stream size : 3.13 GiB (88%)
Writing library : x264 core 130 r2273 b3065e6
Encoding settings : cabac=1 / ref=5 / deblock=1:-2:-2 / analyse=0x3:0x111 / me=umh / subme=9 / psy=1 / psy_rd=0.00:0.10 / mixed_ref=1 / me_range=32 / chroma_me=1 / trellis=2 / 8x8dct=1 / cqm=0 / deadzone=21,11 / fast_pskip=1 / chroma_qp_offset=-1 / threads=12 / lookahead_threads=1 / sliced_threads=0 / nr=0 / decimate=1 / interlaced=0 / bluray_compat=0 / constrained_intra=0 / bframes=5 / b_pyramid=2 / b_adapt=0 / b_bias=0 / direct=1 / weightb=1 / open_gop=0 / weightp=2 / keyint=250 / keyint_min=25 / scenecut=40 / intra_refresh=0 / rc_lookahead=50 / rc=2pass / mbtree=1 / bitrate=1700 / ratetol=1.0 / qcomp=0.60 / qpmin=0 / qpmax=69 / qpstep=4 / cplxblur=20.0 / qblur=0.5 / ip_ratio=1.40 / aq=1:1.00
Default : Yes
Forced : No
Audio
ID : 2
Format : AC-3
Format/Info : Audio Coding 3
Mode extension : CM (complete main)
Format settings, Endianness : Big
Codec ID : A_AC3
Duration : 4h 29mn
Bit rate mode : Constant
Bit rate : 192 Kbps
Channel(s) : 2 channels
Channel positions : Front: L R
Sampling rate : 48.0 KHz
Bit depth : 16 bits
Compression mode : Lossy
Stream size : 370 MiB (10%)
Default : Yes
Forced : No



Релиз от:



   Похожие торренты   Торрент   Размер 
В этой теме нет новых непрочитанных сообщений. National Geographic: Неукротимые дельфины / Dolphins: The Wild Side (1999) DVDRip от LTarik

1 | 4

700.87 МБ

В этой теме нет новых непрочитанных сообщений. Мадагаскар: Киты и люди / Madagascar Des Baleines Et Des Hommes (2009) HDTVRip - AVC от Тorrent-Хzona

0 | 2

769.69 МБ

В этой теме нет новых непрочитанных сообщений. Дельфины и киты / Dolphins and Whales: Tribes of the Ocean (2008) DVDRip (BDRip) от ExKinoRay

8 | 6

699.13 МБ

В этой теме нет новых непрочитанных сообщений. National Geographic: По следам святого Грааля / National Geographic: Quest for the Grail (2000) DVDRip-AVC от Тorrent-Хzona

5 | 1

732.5 МБ

В этой теме нет новых непрочитанных сообщений. National Geographic. Сборник о древних цивилизациях майя и инков [01-02 из 02] (2002-2004) DVDRip от Тorrent-Хzona

8 | 1

2.9 ГБ

В этой теме нет новых непрочитанных сообщений. Дельфины и киты / Dolphins and Whales (2008) BDRip 720p

2 | 3

1.61 ГБ

В этой теме нет новых непрочитанных сообщений. Дельфины и киты 3D / Dolphins and Whales: Tribes of the Ocean 3D (2008) BDRip AVC от Киномагия

0 | 1

697.29 МБ




Вы не можете начинать темы
Вы не можете отвечать на сообщения
Вы не можете редактировать свои сообщения
Вы не можете удалять свои сообщения
Вы не можете добавлять вложения

Перейти:  
Для Мосгорсуда, Роскомнадзора и рекламодателей: mosgorsud-torrent[собачка]yandex.ru
 Вход
ppkBB3cker v.2 © 2008-2014 @ PPK
[ Time : 0.045s | 14 Queries | GZIP : Off ]

Торрент трекер RUTOR.IN, Не можете зайти на rutor.org? Какой новый адрес рутор? Какое зеркало рутор? Не работает rutor.org и зеркала? Тогда наш торрент специально для вас. Rutor.in неофициальное зеркало rutor. В случае если у Вас заблокирован rutor или вдруг Вы не можете на него зайти, то Вы без труда сможете скачать бесплатно и без рекламы последние новинки кино, игр, сериалов и прочего у нас, на Rutor.in. Не нужно использовать прокси, чтобы зайти на рутор, достаточно воспользоваться нашим ресурсом. Все новые фильмы, игры, сериалы, книги и музыка за 2013 и 2014 годы через торрент бесплатно. Скачивайте фильмы в хорошем качестве, игры для пк, xbox, playstation без регистрации. У нас вы найдете новые Зарубежные сериалы и Русские сериалы 2013, 2014, 2015 годов. Оставайтесь с нами, качайте любимые фильмы, игры, сериалы, книги и музыку.