img image001 image001 image001 image001 image001 image001 image001 image001 image001 image001 image001 image001 image001 image001 image001

Planets Sun Sun Sun
Статистика раздачи
Автор: Снежана | Размер: 616.4 МБ | Добавлен: 27 июл 2013
Раздают: 9    Качают: 2
Скачать торрент
Скачать торрент
Описание торрента

СообщениеДобавлено: 27 июл 2013 


Инфомация о фильме
Оригинальное название: Фальшивомонетчики. Гении и злодеи.
Год выхода: 2004
Жанр: Документальный
Режиссер: Владимир Харченко-Куликовский, Людмила Уланова
О фильме
В 70-е годы Виктор Баранов сделал поддельные 25 рублей, очень близкие по качеству к Гознаку. 12 лет он создавал у себя в сарае собственный Гознак, а когда его поймали - получил 12 лет с конфискацией имущества.
Владимир Гуринов напечатал пятирублевку в конце 80-х. Примерно через десять лет химик-технолог из Пензы сумел сделать фальшивые 500 рублей. Несмотря на то, что он использовал компьютерную технику, его деньги выглядели и звучали как настоящие.
В фильме рассказывается, как три самых опасных фальшивомонетчика нашей страны добились высочайшего уровня подделки банкнот. Три гения преступного мира, которые не обогатились, не устроили свою жизнь, не стали счастливы, хотя и обладают множеством талантов и уникальных способностей.

Страна: Россия
Продолжительность: 00:44:01
Перевод: Оригинал
Файл
Формат: MKV
Качество: DVDRip-AVC
Видео: MPEG4 AVC 1024 x 624, 25.000 fps, 1700 - 1958 Кбит/с
Звук: AC-3, 2 ch, 192 Кбит/с
Субтитры: Нет

General
Unique ID : 191265833103848375157236356931684826772 (0x8FE475A3D7AA751D827CCB9235FA7E94)
Complete name : D:DownloadsFalshivomonetchiki. 2004.x264.DVDRip.(AVC).by.Тorrent-Хzona.mkv
Format : Matroska
Format version : Version 2
File size : 616 MiB
Duration : 44mn 1s
Overall bit rate : 1 958 Kbps
Encoded date : UTC 2013-07-11 05:27:37
Writing application : mkvmerge v6.1.0 ('Old Devil') built on Mar 4 2013 09:10:42
Writing library : libebml v1.3.0 + libmatroska v1.4.0
Video
ID : 1
Format : AVC
Format/Info : Advanced Video Codec
Format profile : High@L4.1
Format settings, CABAC : Yes
Format settings, ReFrames : 5 frames
Codec ID : V_MPEG4/ISO/AVC
Duration : 44mn 1s
Bit rate : 1 700 Kbps
Width : 1 024 pixels
Height : 624 pixels
Display aspect ratio : 16:10
Frame rate mode : Constant
Frame rate : 25.000 fps
Color space : YUV
Chroma subsampling : 4:2:0
Bit depth : 8 bits
Scan type : Progressive
Bits/(Pixel*Frame) : 0.106
Stream size : 524 MiB (85%)
Writing library : x264 core 130 r2273 b3065e6
Encoding settings : cabac=1 / ref=5 / deblock=1:-2:-2 / analyse=0x3:0x111 / me=umh / subme=9 / psy=1 / psy_rd=0.00:0.10 / mixed_ref=1 / me_range=32 / chroma_me=1 / trellis=2 / 8x8dct=1 / cqm=0 / deadzone=21,11 / fast_pskip=0 / chroma_qp_offset=-1 / threads=6 / lookahead_threads=1 / sliced_threads=0 / nr=0 / decimate=1 / interlaced=0 / bluray_compat=0 / constrained_intra=0 / bframes=5 / b_pyramid=2 / b_adapt=0 / b_bias=0 / direct=1 / weightb=1 / open_gop=0 / weightp=2 / keyint=250 / keyint_min=25 / scenecut=40 / intra_refresh=0 / rc_lookahead=50 / rc=2pass / mbtree=1 / bitrate=1700 / ratetol=1.0 / qcomp=0.60 / qpmin=0 / qpmax=69 / qpstep=4 / cplxblur=20.0 / qblur=0.5 / ip_ratio=1.40 / aq=1:1.00
Default : Yes
Forced : No
Audio
ID : 2
Format : AC-3
Format/Info : Audio Coding 3
Mode extension : CM (complete main)
Format settings, Endianness : Big
Codec ID : A_AC3
Duration : 44mn 1s
Bit rate mode : Constant
Bit rate : 256 Kbps
Channel(s) : 2 channels
Channel positions : Front: L R
Sampling rate : 48.0 KHz
Bit depth : 16 bits
Compression mode : Lossy
Stream size : 80.6 MiB (13%)
Default : Yes
Forced : No



Релиз от: &



   Похожие торренты   Торрент   Размер 
В этой теме нет новых непрочитанных сообщений. Гении и злодеи [11 книг] (2010-2012) FB2

23 | 4

31.78 МБ

В этой теме нет новых непрочитанных сообщений. Богатство [01-12 из 12] (2004) DVDRip-AVC от Тorrent-Хzona

12 | 5

7.31 ГБ

В этой теме нет новых непрочитанных сообщений. Крейсер Варяг (2004) DVDRip-AVC от Тorrent-Хzona

3 | 2

1.2 ГБ

В этой теме нет новых непрочитанных сообщений. Гении и злодеи. Микалоюс Чюрленис (2014) IPTVRip от Pshichko66

45 | 9

401.14 МБ

В этой теме нет новых непрочитанных сообщений. Гении и злодеи. Редьярд Киплинг (2012) IPTVRip от Pshichko66

31 | 7

399.71 МБ

В этой теме нет новых непрочитанных сообщений. Гении и Злодеи. Ирвинг Берлин (2015) IPTVRip от Pshichko66

25 | 4

400.4 МБ

В этой теме нет новых непрочитанных сообщений. Гении и злодеи. Жан-Батист Люлли (2015) IPTVRip от Pshichko66

23 | 5

400.07 МБ




Вы не можете начинать темы
Вы не можете отвечать на сообщения
Вы не можете редактировать свои сообщения
Вы не можете удалять свои сообщения
Вы не можете добавлять вложения

Перейти:  
Для Мосгорсуда, Роскомнадзора и рекламодателей: mosgorsud-torrent[собачка]yandex.ru
 Вход
ppkBB3cker v.2 © 2008-2014 @ PPK
[ Time : 0.035s | 14 Queries | GZIP : Off ]

Торрент трекер RUTOR.IN, Не можете зайти на rutor.org? Какой новый адрес рутор? Какое зеркало рутор? Не работает rutor.org и зеркала? Тогда наш торрент специально для вас. Rutor.in неофициальное зеркало rutor. В случае если у Вас заблокирован rutor или вдруг Вы не можете на него зайти, то Вы без труда сможете скачать бесплатно и без рекламы последние новинки кино, игр, сериалов и прочего у нас, на Rutor.in. Не нужно использовать прокси, чтобы зайти на рутор, достаточно воспользоваться нашим ресурсом. Все новые фильмы, игры, сериалы, книги и музыка за 2013 и 2014 годы через торрент бесплатно. Скачивайте фильмы в хорошем качестве, игры для пк, xbox, playstation без регистрации. У нас вы найдете новые Зарубежные сериалы и Русские сериалы 2013, 2014, 2015 годов. Оставайтесь с нами, качайте любимые фильмы, игры, сериалы, книги и музыку.