img image001 image001 image001 image001 image001 image001 image001 image001 image001 image001 image001 image001 image001 image001 image001 image001

Planets Sun Sun Sun
Статистика раздачи
Автор: Снежана | Размер: 2.71 ГБ | Добавлен: 27 июл 2013
Раздают: 15    Качают: 6
Скачать торрент
Скачать торрент
Описание торрента

СообщениеДобавлено: 27 июл 2013 


Инфомация о фильме
Название: Discovery: Завоеватели
Оригинальное название: Discovery: Conquerors
Год выхода: 1996
Жанр: Документальный, исторический
Режиссер: Маслин Нигель, Маршал Роберт
О фильме
Легендарные властители, прославленные полководцы, провидцы и мудрецы, которым покорялись народы и империи. В чем секрет их безграничного могущества и невероятных удач на поле брани и в политической игре? Правдивы ли летописи, изображающие их алчными тиранами? Перед Вами захватывающие истории великих завоевателей.
Страна: CША
Студия: Discovery Communications
Продолжительность: 4 х ~ 00:52:00
Перевод: Профессиональный одноголосый
Файл
Формат: MKV
Качество: DVDRip-AVC
Видео: MPEG4 AVC 768 x 576, 25.000 fps, 1700 - 1894 Кбит/с
Звук: AC-3, 2 ch, 192 Кбит/с
Субтитры: Нет

General
Unique ID : 202030782125739607155202609658317138674 (0x97FDB69AB93890199B5C966AE9FA6AF2)
Complete name : D:DownloadsZavoevateli.1996.x264.DVDRip.(AVC).by.Тorrent-ХzonaПётр 1.mkv
Format : Matroska
Format version : Version 2
File size : 684 MiB
Duration : 50mn 29s
Overall bit rate : 1 894 Kbps
Encoded date : UTC 2013-07-07 22:38:15
Writing application : mkvmerge v6.1.0 ('Old Devil') built on Mar 4 2013 09:10:42
Writing library : libebml v1.3.0 + libmatroska v1.4.0
Video
ID : 1
Format : AVC
Format/Info : Advanced Video Codec
Format profile : High@L4.1
Format settings, CABAC : Yes
Format settings, ReFrames : 5 frames
Codec ID : V_MPEG4/ISO/AVC
Duration : 50mn 29s
Bit rate : 1 700 Kbps
Width : 768 pixels
Height : 576 pixels
Display aspect ratio : 4:3
Frame rate mode : Constant
Frame rate : 25.000 fps
Color space : YUV
Chroma subsampling : 4:2:0
Bit depth : 8 bits
Scan type : Progressive
Bits/(Pixel*Frame) : 0.154
Stream size : 601 MiB (88%)
Writing library : x264 core 130 r2273 b3065e6
Encoding settings : cabac=1 / ref=5 / deblock=1:-2:-2 / analyse=0x3:0x111 / me=umh / subme=9 / psy=1 / psy_rd=0.00:0.10 / mixed_ref=1 / me_range=32 / chroma_me=1 / trellis=2 / 8x8dct=1 / cqm=0 / deadzone=21,11 / fast_pskip=0 / chroma_qp_offset=-1 / threads=6 / lookahead_threads=1 / sliced_threads=0 / nr=0 / decimate=1 / interlaced=0 / bluray_compat=0 / constrained_intra=0 / bframes=5 / b_pyramid=2 / b_adapt=0 / b_bias=0 / direct=1 / weightb=1 / open_gop=0 / weightp=2 / keyint=250 / keyint_min=25 / scenecut=40 / intra_refresh=0 / rc_lookahead=50 / rc=2pass / mbtree=1 / bitrate=1700 / ratetol=1.0 / qcomp=0.60 / qpmin=0 / qpmax=69 / qpstep=4 / cplxblur=20.0 / qblur=0.5 / ip_ratio=1.40 / aq=1:1.00
Default : Yes
Forced : No
Audio
ID : 2
Format : AC-3
Format/Info : Audio Coding 3
Format profile : Dolby Digital
Mode extension : CM (complete main)
Format settings, Endianness : Big
Codec ID : A_AC3
Duration : 50mn 29s
Bit rate mode : Constant
Bit rate : 192 Kbps
Channel(s) : 2 channels
Channel positions : Front: L R
Sampling rate : 48.0 KHz
Bit depth : 16 bits
Compression mode : Lossy
Stream size : 69.3 MiB (10%)
Default : Yes
Forced : No



Релиз от: &



   Похожие торренты   Торрент   Размер 
В этой теме нет новых непрочитанных сообщений. Discovery: Современная война / Discovery: Modern Warfare (2005) DVDRip 720p

49 | 12

2.9 ГБ

В этой теме нет новых непрочитанных сообщений. Discovery. Кто подставил Иисуса? / Discovery. Who Framed Jesus? (2010) DVDRip от -=HD-NET=-

62 | 10

1.03 ГБ

В этой теме нет новых непрочитанных сообщений. Discovery: Неистовый торнадо / Discovery: Tornado Rampage (2008) DVDRip

58 | 6

745.13 МБ

В этой теме нет новых непрочитанных сообщений. Discovery: 101 вещь, которую стоит сделать перед смертью / Discovery: 101 Things to Do Before You Die (2000) DVDRip | P2

118 | 14

1.26 ГБ

В этой теме нет новых непрочитанных сообщений. Discovery: Удивительный секс / Discovery: Strange Sex (2009) DVDRip от -=HD-NET=-

196 | 50

702.04 МБ

В этой теме нет новых непрочитанных сообщений. Discovery: Волки / Discovery: Wolves At Our Door (1997) DVDRip от -=HD-NET=-

77 | 16

601.38 МБ

В этой теме нет новых непрочитанных сообщений. Discovery. Уйти от погони / Discovery. Lone Target [01-05] (2014) HDTVRip от HitWay | P1

124 | 383

2.92 ГБ




Вы не можете начинать темы
Вы не можете отвечать на сообщения
Вы не можете редактировать свои сообщения
Вы не можете удалять свои сообщения
Вы не можете добавлять вложения

Перейти:  
 Вход
ppkBB3cker v.2 © 2008-2014 @ PPK
[ Time : 0.022s | 15 Queries | GZIP : Off ]

cron