img image001 image001 image001 image001 image001 image001 image001 image001 image001 image001 image001 image001 image001 image001 image001

Planets Sun Sun Sun
Статистика раздачи
Автор: Снежана | Размер: 1.99 ГБ | Добавлен: 27 июл 2013
Раздают: 44    Качают: 8
Скачать торрент
Скачать торрент
Описание торрента

СообщениеДобавлено: 27 июл 2013 


Инфомация о фильме
Название: ВВС: Безжалостные убийцы
Оригинальное название: BBC: Ultimate Killers
Год выхода: 2001
Жанр: Документальный
Режиссер: Стив Леонардс
О фильме
Шокирующие истории о самых смертоносных созданиях на Земле. В программе описываются реальные случаи нападения этих животных на людей. Вы увидите самых быстрых, самых сильных и самых ядовитых существ на планете, а также эксклюзивные интервью с пострадавшими от их нападений и чудом оставшимися о живых людьми. Во некоторым из этих историй можно снимать фильмы ужасов. Убедитесь в этом сами!
Страна: великобритания
Студия: BBC Worldwide
Продолжительность: 3 x ~ 00:50:00
Перевод: Профессиональный одноголосый
Файл
Формат: MKV
Качество: DVDRip-AVC
Видео: MPEG4 AVC 1024 x 576, 25.000 fps, 1700 - 1894 Кбит/с
Звук: AC-3, 2 ch, 192 Кбит/с
Субтитры: Нет

General
Unique ID : 219391846158106035832632022246050100164 (0xA50D5525BBF9C3158B6749E128D5F3C4)
Complete name : D:DownloadsUltimate.Killers.2001.x264.DVDRip.(AVC).by.Тorrent-Хzona2.Serija.mkv
Format : Matroska
Format version : Version 2
File size : 678 MiB
Duration : 50mn 1s
Overall bit rate : 1 893 Kbps
Encoded date : UTC 2013-07-14 07:44:45
Writing application : mkvmerge v6.1.0 ('Old Devil') built on Mar 4 2013 09:10:42
Writing library : libebml v1.3.0 + libmatroska v1.4.0
Video
ID : 1
Format : AVC
Format/Info : Advanced Video Codec
Format profile : High@L4.1
Format settings, CABAC : Yes
Format settings, ReFrames : 5 frames
Codec ID : V_MPEG4/ISO/AVC
Duration : 50mn 1s
Bit rate : 1 700 Kbps
Width : 1 024 pixels
Height : 576 pixels
Display aspect ratio : 16:9
Frame rate mode : Constant
Frame rate : 25.000 fps
Color space : YUV
Chroma subsampling : 4:2:0
Bit depth : 8 bits
Scan type : Progressive
Bits/(Pixel*Frame) : 0.115
Stream size : 595 MiB (88%)
Writing library : x264 core 130 r2273 b3065e6
Encoding settings : cabac=1 / ref=5 / deblock=1:-2:-2 / analyse=0x3:0x111 / me=umh / subme=9 / psy=1 / psy_rd=0.00:0.10 / mixed_ref=1 / me_range=32 / chroma_me=1 / trellis=2 / 8x8dct=1 / cqm=0 / deadzone=21,11 / fast_pskip=0 / chroma_qp_offset=-1 / threads=6 / lookahead_threads=1 / sliced_threads=0 / nr=0 / decimate=1 / interlaced=0 / bluray_compat=0 / constrained_intra=0 / bframes=5 / b_pyramid=2 / b_adapt=0 / b_bias=0 / direct=1 / weightb=1 / open_gop=0 / weightp=2 / keyint=250 / keyint_min=25 / scenecut=40 / intra_refresh=0 / rc_lookahead=50 / rc=2pass / mbtree=1 / bitrate=1700 / ratetol=1.0 / qcomp=0.60 / qpmin=0 / qpmax=69 / qpstep=4 / cplxblur=20.0 / qblur=0.5 / ip_ratio=1.40 / aq=1:1.00
Default : Yes
Forced : No
Audio
ID : 2
Format : AC-3
Format/Info : Audio Coding 3
Mode extension : CM (complete main)
Format settings, Endianness : Big
Codec ID : A_AC3
Duration : 50mn 1s
Bit rate mode : Constant
Bit rate : 192 Kbps
Channel(s) : 2 channels
Channel positions : Front: L R
Sampling rate : 48.0 KHz
Bit depth : 16 bits
Compression mode : Lossy
Stream size : 68.7 MiB (10%)
Default : Yes
Forced : No



Релиз от: &



   Похожие торренты   Торрент   Размер 
В этой теме нет новых непрочитанных сообщений. Медоеды: Змеиные убийцы / Honey Badgers of the Kalahari. Snake Killers (2001) DVDRip-AVC от Тorrent-Хzona

69 | 3

732.95 МБ

В этой теме нет новых непрочитанных сообщений. BBC: Идеальные Убийцы / BBC: Predators [01-06 из 06] (2000) DVDRip-AVC от Тorrent-Хzona

14 | 3

2.33 ГБ

В этой теме нет новых непрочитанных сообщений. BBC. Планета динозавров: Совершенные убийцы / Planet Dinosaur: Ultimate Killers (2012) BDRip-AVC от -=HD-NET=-

82 | 4

877.44 МБ

В этой теме нет новых непрочитанных сообщений. Планета динозавров. Совершенные убийцы. / Planet dinosaur. Ultimate killers (2011) BDRip от bittracker

102 | 19

495.5 МБ

В этой теме нет новых непрочитанных сообщений. Планета динозавров. Совершенные убийцы. / Planet dinosaur. Ultimate killers (2011) BDRip 720p

6 | 2

995.12 МБ

В этой теме нет новых непрочитанных сообщений. Тайны космоса. Кометы - убийцы Земли? / Space Investigations: Comets Target Earth? (2007) DVDRip-AVC от Тorrent-Хzona

0 | 4

697.25 МБ

В этой теме нет новых непрочитанных сообщений. Планета динозавров: Совершенные убийцы / Planet Dinosaur: Ultimate Killers (2012) BDRip 1080p от Ash61 | 3D-Video | halfOU | P1

461 | 54

3.62 ГБ




Вы не можете начинать темы
Вы не можете отвечать на сообщения
Вы не можете редактировать свои сообщения
Вы не можете удалять свои сообщения
Вы не можете добавлять вложения

Перейти:  
Для Мосгорсуда, Роскомнадзора и рекламодателей: mosgorsud-torrent[собачка]yandex.ru
 Вход
ppkBB3cker v.2 © 2008-2014 @ PPK
[ Time : 0.021s | 15 Queries | GZIP : On ]

Торрент трекер RUTOR.IN, Не можете зайти на rutor.org? Какой новый адрес рутор? Какое зеркало рутор? Не работает rutor.org и зеркала? Тогда наш торрент специально для вас. Rutor.in неофициальное зеркало rutor. В случае если у Вас заблокирован rutor или вдруг Вы не можете на него зайти, то Вы без труда сможете скачать бесплатно и без рекламы последние новинки кино, игр, сериалов и прочего у нас, на Rutor.in. Не нужно использовать прокси, чтобы зайти на рутор, достаточно воспользоваться нашим ресурсом. Все новые фильмы, игры, сериалы, книги и музыка за 2013 и 2014 годы через торрент бесплатно. Скачивайте фильмы в хорошем качестве, игры для пк, xbox, playstation без регистрации. У нас вы найдете новые Зарубежные сериалы и Русские сериалы 2013, 2014, 2015 годов. Оставайтесь с нами, качайте любимые фильмы, игры, сериалы, книги и музыку.