img image001 image001 image001 image001 image001 image001 image001 image001 image001 image001 image001 image001 image001 image001 image001

Planets Sun Sun Sun
Статистика раздачи
Автор: Снежана | Размер: 7.33 ГБ | Добавлен: 27 июл 2013
Раздают: 11    Качают: 4
Скачать торрент
Скачать торрент
Описание торрента

СообщениеДобавлено: 27 июл 2013 

#77

Информация о фильме
Название: Вышка. Выпуск 7 (2013.07.21)
Год выхода: 2013
Страна: Россия
Жанр: Тв-шоу, прыжки в воду
Перевод: Не требуется
Язык: Русский

Режиссер: Илья Кривицкий
О фильме:
Противостояние двух команд - "Акулы" и "Дельфины" - продолжается. В полуфинале шоу "Вышка" - дуэли представителя одной команды против представителя другой. Слабейший покинет проект, сильнейший – выйдет в финал. Победитель шоу и обладатель главного приза будет только один, он определится после восьмого тура шоу.

Участники шоу:

Команда "Акулы": певец Данко, актер Александр Морозов, певица Катя Лель, штангист Дмитрий Клоков и актер Михаил Башкатов. Главный тренер команды – заслуженный тренер России Раиса Дмитриевна Гальперина. Тренерский штаб – заслуженный тренер России Юрий Павлович Аселедкин и заслуженный тренер России Галина Ивановна Каребо.

Команда "Дельфины": актер Влад Демин, звезда КВН Дмитрий Кожома, певец Митя Фомин, телеведущая Виктория Боня и ведущий новостей Первого канала Максим Шарафутдинов. Главный тренер – заслуженный тренер России Сергей Григорьевич Гальперин. Тренерский штаб – двукратный призер Олимпийских игр Глеб Гальперин и тренер высшей категории Любовь Немчинова.

Члены жюри: заслуженный тренер России по прыжкам в воду Владимир Пахалин; олимпийская чемпионка по прыжкам в воду Елена Вайцеховская; певица Лайма Вайкуле; народная артистка России Ирина Мирошниченко; народный артист России Михаил Боярский.

Ведущие проекта – Виктор Васильев и Катерина Шпица.
Продюсер проекта - Илья Кривицкий


Продолжительность: 01:31:06

Файл
Качество: HDTV 1080i
Формат файла: TS
Видео кодек: AVC/H.264
Аудио кодек: MP2
Видео: 1920x1080 (16:9), 25.000 fps, 10.7 Mbps
Аудио: MP2, 48000Hz, 224 kbp/s

Video
ID : 1902 (0x76E)
Menu ID : 1 (0x1)
Format : AVC
Format/Info : Advanced Video Codec
Format profile : High@L4.0
Format settings, CABAC : Yes
Format settings, ReFrames : 3 frames
Codec ID : 27
Duration : 1h 31mn
Bit rate : 10.7 Mbps
Width : 1 920 pixels
Height : 1 080 pixels
Display aspect ratio : 16:9
Frame rate : 25.000 fps
Standard : Component
Color space : YUV
Chroma subsampling : 4:2:0
Bit depth : 8 bits
Scan type : Interlaced
Scan order : Top Field First
Bits/(Pixel*Frame) : 0.207
Stream size : 6.82 GiB (93%)
Color primaries : BT.709
Transfer characteristics : BT.709
Matrix coefficients : BT.709

Audio
ID : 2902 (0xB56)
Menu ID : 1 (0x1)
Format : MPEG Audio
Format version : Version 1
Format profile : Layer 2
Codec ID : 3
Duration : 1h 31mn
Bit rate mode : Constant
Bit rate : 224 Kbps
Channel(s) : 2 channels
Sampling rate : 48.0 KHz
Compression mode : Lossy
Stream size : 146 MiB (2%)
Language : Russian




Релиз от: Shuriman



   Похожие торренты   Торрент   Размер 
В этой теме нет новых непрочитанных сообщений. Вышка [01х01-06] (2013) HDTV 1080i от Mydimka

1 | 2

52.93 ГБ

В этой теме нет новых непрочитанных сообщений. Дельта [01x07-24 из 24] (2015) HDTV (1080i) от Files-x

13 | 27

50.41 ГБ

В этой теме нет новых непрочитанных сообщений. Фарго / Fargo [01x07] (2014) HDTV 720p | Kerob

133 | 11

1.18 ГБ

В этой теме нет новых непрочитанных сообщений. Вышка [01х02] (2013) SATRip

0 | 1

1.21 ГБ

В этой теме нет новых непрочитанных сообщений. Адвайта - Вышка (2013) MP3 от AGR - Generalfilm

33 | 4

124.2 МБ

В этой теме нет новых непрочитанных сообщений. Вышка [01х03] (2013) SATRip

15 | 1

1.17 ГБ

В этой теме нет новых непрочитанных сообщений. Вышка [01х08] (2013) SATRip

2 | 1

1.46 ГБ




Вы не можете начинать темы
Вы не можете отвечать на сообщения
Вы не можете редактировать свои сообщения
Вы не можете удалять свои сообщения
Вы не можете добавлять вложения

Перейти:  
Для Мосгорсуда, Роскомнадзора и рекламодателей: mosgorsud-torrent[собачка]yandex.ru
 Вход
ppkBB3cker v.2 © 2008-2014 @ PPK
[ Time : 0.044s | 17 Queries | GZIP : Off ]

cron