img image001 image001 image001 image001 image001 image001 image001 image001 image001 image001 image001 image001 image001 image001 image001

Planets Sun Sun Sun
Статистика раздачи
Автор: Снежана | Размер: 2.19 ГБ | Добавлен: 12 авг 2013
Раздают: 230    Качают: 14
Скачать торрент
Скачать торрент
Описание торрента

СообщениеДобавлено: 12 авг 2013 

#77

Информация о фильме
Название: Эрнест и Селестина: Приключения мышки и медведя
Оригинальное название: Ernest et Célestine
Год выхода: 2012
Жанр: мультфильм
Режиссер: Стефани Обье, Венсан Патар, Бенжамин Реннер
В ролях: Ламбер Вильсон, Полин Бруннер, Энн-Мари Луп, Патрис Меленнек, Брижитт Виртюд, Леонар Луф, Доминик Морен, Ян Лемадик, Федор Аткин, Винсент Грасс

О фильме: Большая дружба начинается с малого… Она — маленькая мышка, он — огромный медведь. Она — ребенок, он — взрослый. Она мечтает быть художницей, хотя по правилам своего мира должна стать дантистом, он — музыкант и поэт, ведущий бездумную жизнь и никогда не имеющий куска хлеба на завтра. Они живут в разных мирах: для обитателей мышиного царства нет ничего более дикого, чем подружиться с «большим плохим медведем», да и его соседи вряд ли поймут, зачем водиться с мышкой. Но дружба и родство душ сродни настоящему волшебству. И какое этой парочке дело до условностей, разницы в размере, исторических предрассудков и культурных барьеров?



Выпущено: StudioCanal
Продолжительность: 01:19:18
Перевод: Дублированный (лицензия)

Файл
Кодек: x264
Качество: BDRip (источник: Blu-ray Disc)
Видео: 1920x1080 (16:9), 24 fps, 3050 kbps
Аудио #1: AC-3, 6 ch, 448 kbps (Rus)
Аудио #2: AC-3, 6 ch, 448 kbps (Fre)
Субтитры: Русские, Французские
Скачать: сэмпл

Скриншоты

Общее
Уникальный идентификатор : 240758360502177375296351902679480739243 (0xB5205FA348CDBEB4AFD169F346F525AB)
Полное имя : Ernest.et.Celestine.2012.BDRip.1080p.Rus.Fre.mkv
Формат : Matroska
Версия формата : Version 2
Размер файла : 2,19 Гбайт
Продолжительность : 1 ч. 19 м.
Общий поток : 3949 Кбит/сек
Название фильма : Эрнест и Селестина: Приключения мышки и медведя / Ernest et Célestine (2012)
Дата кодирования : UTC 2013-07-28 07:03:44
Программа кодирования : mkvmerge v5.8.0 ('No Sleep / Pillow') built on Sep 2 2012 15:37:04
Библиотека кодирования : libebml v1.2.3 + libmatroska v1.3.0

Видео
Идентификатор : 1
Формат : AVC
Формат/Информация : Advanced Video Codec
Профиль формата : High@L4.1
Параметр CABAC формата : Да
Параметр ReFrames формата : 4 кадра
Идентификатор кодека : V_MPEG4/ISO/AVC
Продолжительность : 1 ч. 19 м.
Битрейт : 3052 Кбит/сек
Ширина : 1920 пикселей
Высота : 1080 пикселей
Соотношение сторон : 16:9
Частота кадров : 24,000 кадра/сек
Цветовое пространство : YUV
Субдискретизация насыщенности : 4:2:0
Битовая глубина : 8 бит
Тип развёртки : Прогрессивная
Бит/(Пиксели*Кадры) : 0.061
Размер потока : 1,65 Гбайт (75%)
Заголовок : Release by AlexKa
Библиотека кодирования : x264 core 135 r2345 f0c1c53
Настройки программы : cabac=1 / ref=4 / deblock=1:0:0 / analyse=0x3:0x133 / me=umh / subme=11 / psy=1 / psy_rd=1.00:0.00 / mixed_ref=1 / me_range=32 / chroma_me=1 / trellis=2 / 8x8dct=1 / cqm=0 / deadzone=21,11 / fast_pskip=0 / chroma_qp_offset=-2 / threads=12 / lookahead_threads=3 / sliced_threads=0 / nr=0 / decimate=1 / interlaced=0 / bluray_compat=0 / constrained_intra=0 / bframes=10 / b_pyramid=2 / b_adapt=2 / b_bias=0 / direct=3 / weightb=1 / open_gop=0 / weightp=2 / keyint=240 / keyint_min=24 / scenecut=40 / intra_refresh=0 / rc_lookahead=60 / rc=2pass / mbtree=1 / bitrate=3052 / ratetol=1.0 / qcomp=0.60 / qpmin=0 / qpmax=69 / qpstep=4 / cplxblur=20.0 / qblur=0.5 / ip_ratio=1.40 / aq=1:1.00
Язык : French

Аудио #1
Идентификатор : 2
Формат : AC-3
Формат/Информация : Audio Coding 3
Расширение режима : CM (complete main)
Идентификатор кодека : A_AC3
Продолжительность : 1 ч. 19 м.
Вид битрейта : Постоянный
Битрейт : 448 Кбит/сек
Каналы : 6 каналов
Расположение каналов : Front: L C R, Side: L R, LFE
Частота : 48,0 КГц
Битовая глубина : 16 бит
Метод сжатия : С потерями
Размер потока : 254 Мбайт (11%)
Заголовок : Rus
Язык : Russian

Аудио #2
Идентификатор : 3
Формат : AC-3
Формат/Информация : Audio Coding 3
Расширение режима : CM (complete main)
Идентификатор кодека : A_AC3
Продолжительность : 1 ч. 19 м.
Вид битрейта : Постоянный
Битрейт : 448 Кбит/сек
Каналы : 6 каналов
Расположение каналов : Front: L C R, Side: L R, LFE
Частота : 48,0 КГц
Битовая глубина : 16 бит
Метод сжатия : С потерями
Размер потока : 254 Мбайт (11%)
Заголовок : Fre
Язык : French

Текст #1
Идентификатор : 4
Формат : UTF-8
Идентификатор кодека : S_TEXT/UTF8
Идентификатор кодека/Информация : UTF-8 Plain Text
Заголовок : Rus
Язык : Russian

Текст #2
Идентификатор : 5
Формат : UTF-8
Идентификатор кодека : S_TEXT/UTF8
Идентификатор кодека/Информация : UTF-8 Plain Text
Заголовок : Fre
Язык : French

Меню
00:00:00.000 : :Chapter 01
00:05:00.000 : :Chapter 02
00:10:00.625 : :Chapter 03
00:15:00.458 : :Chapter 04
00:20:01.000 : :Chapter 05
00:25:01.083 : :Chapter 06
00:30:01.500 : :Chapter 07
00:35:02.041 : :Chapter 08
00:40:02.000 : :Chapter 09
00:45:02.625 : :Chapter 10
00:50:03.000 : :Chapter 11
00:55:03.083 : :Chapter 12
01:00:03.500 : :Chapter 13
01:05:03.833 : :Chapter 14
01:10:03.875 : :Chapter 15
01:15:04.041 : :Chapter 16
x264 [info]: frame I:998 Avg QP: 8.34 size:405600
x264 [info]: frame P:26009 Avg QP:14.22 size: 35674
x264 [info]: frame B:87186 Avg QP:19.52 size: 5525
x264 [info]: consecutive B-frames: 2.7% 4.5% 10.1% 24.6% 15.2% 20.3% 7.7% 6.6% 2.8% 2.3% 3.2%



   Похожие торренты   Торрент   Размер 
В этой теме нет новых непрочитанных сообщений. Эрнест и Селестина: Приключения мышки и медведя / Ernest et Celestine (2012) BDRip 1080p от R.G.GoldenShara

20 | 8

4.37 ГБ

В этой теме нет новых непрочитанных сообщений. Эрнест и Селестина: Приключения мышки и медведя / Ernest et Celestine (2012) BDRip-AVC | Лицензия

162 | 51

1.42 ГБ

В этой теме нет новых непрочитанных сообщений. Эрнест и Селестина: Приключения мышки и медведя / Ernest et Celestine (2012) BDRip 720p от R.G.GoldenShara

27 | 7

2.19 ГБ

В этой теме нет новых непрочитанных сообщений. Эрнест и Селестина: Приключения мышки и медведя / Ernest et Celestine (2012) HDRip | Лицензия

136 | 8

1.37 ГБ

В этой теме нет новых непрочитанных сообщений. Эрнест и Селестина: Приключения мышки и медведя / Ernest et Celestine (2012) HDRip от Files-x

30 | 5

716.3 МБ

В этой теме нет новых непрочитанных сообщений. Эрнест и Селестина: Приключения мышки и медведя / Ernest et Celestine (2012) DVD9 | Лицензия

15 | 4

5.13 ГБ

В этой теме нет новых непрочитанных сообщений. Эрнест и Селестина: Приключения мышки и медведя / Ernest et Célestine (2012) BDRip 720p от Leonardo and Scarabey | Лицензия

129 | 4

1.41 ГБ




Вы не можете начинать темы
Вы не можете отвечать на сообщения
Вы не можете редактировать свои сообщения
Вы не можете удалять свои сообщения
Вы не можете добавлять вложения

Перейти:  
Для Мосгорсуда, Роскомнадзора и рекламодателей: mosgorsud-torrent[собачка]yandex.ru
 Вход
ppkBB3cker v.2 © 2008-2014 @ PPK
[ Time : 0.049s | 14 Queries | GZIP : Off ]

Торрент трекер RUTOR.IN, Не можете зайти на rutor.org? Какой новый адрес рутор? Какое зеркало рутор? Не работает rutor.org и зеркала? Тогда наш торрент специально для вас. Rutor.in неофициальное зеркало rutor. В случае если у Вас заблокирован rutor или вдруг Вы не можете на него зайти, то Вы без труда сможете скачать бесплатно и без рекламы последние новинки кино, игр, сериалов и прочего у нас, на Rutor.in. Не нужно использовать прокси, чтобы зайти на рутор, достаточно воспользоваться нашим ресурсом. Все новые фильмы, игры, сериалы, книги и музыка за 2013 и 2014 годы через торрент бесплатно. Скачивайте фильмы в хорошем качестве, игры для пк, xbox, playstation без регистрации. У нас вы найдете новые Зарубежные сериалы и Русские сериалы 2013, 2014, 2015 годов. Оставайтесь с нами, качайте любимые фильмы, игры, сериалы, книги и музыку.