img image001 image001 image001 image001 image001 image001 image001 image001 image001 image001 image001 image001 image001 image001 image001

Planets Sun Sun Sun
Статистика раздачи
Автор: Снежана | Размер: 1.39 ГБ | Добавлен: 12 авг 2013
Раздают: 18    Качают: 7
Скачать торрент
Скачать торрент
Описание торрента

СообщениеДобавлено: 12 авг 2013 

#77
Страна: Россия
Студия: UMP
Жанр: мультфильм, детский
Год выпуска: 2008
Продолжительность: 01:12:56

Перевод: не требуется
Оригинальная аудиодорожка: русский
Cубтитры: нет

Режиссер: Николай Титов, Октябрина Потапова

Роли озвучивали: Валентин Гафт, Дмитрий Назаров, Татьяна Бондаренко, Александр Пожаров, Дмитрий Филимонов

Описание: «Новые приключения Бабки Ёжки» — это продолжение истории о маленькой девочке, воспитанной в волшебном лесу сказочными персонажами: Бабой-Ягой, Кощеем Бессмертным, Лешим, Водяным и Кикиморой.






Качество: DVDRip (DVD5 R5)
Формат: AVI

Видео: 720x384 (1.85:1), 25.000 fps, XviD ~ 2398 kbps avg, 0.347 bit/pixel
Аудио: 48 kHz, АС3 6 ch, 320 kbps, русский

Раздача от:
Общее
Полное имя : Novye.priklyucheniya.Babki.Yejki.2008.DVDRip_[Youtracker]_by_avproh.avi
Формат : AVI
Формат/Информация : Audio Video Interleave
Размер файла : 1,39 Гбайт
Продолжительность : 1 ч. 12 м.
Общий поток : 2727 Кбит/сек
Программа кодирования : VirtualDubMod 1.5.10.3 | www.virtualdub-fr.org || (build 2550/release)
Библиотека кодирования : VirtualDubMod build 2550/release

Видео
Идентификатор : 0
Формат : MPEG-4 Visual
Профиль формата : Advanced Simple@L5
Параметр BVOP формата : 1
Параметр QPel формата : Нет
Параметр GMC формата : Без точки перехода
Параметр матрицы формата : Выборочная
Идентификатор кодека : XVID
Идентификатор кодека/Подсказка : XviD
Продолжительность : 1 ч. 12 м.
Битрейт : 2398 Кбит/сек
Ширина : 720 пикселей
Высота : 384 пикселя
Соотношение сторон : 1,85:1
Частота кадров : 25,000 кадров/сек
Цветовое пространство : YUV
Субдискретизация насыщенности : 4:2:0
Битовая глубина : 8 бит
Тип развёртки : Прогрессивная
Метод сжатия : С потерями
Бит/(Пиксели*Кадры) : 0.347
Размер потока : 1,22 Гбайт (88%)
Библиотека кодирования : XviD 65

Аудио
Идентификатор : 1
Формат : AC-3
Формат/Информация : Audio Coding 3
Расширение режима : CM (complete main)
Параметр Endianness формата : Big
Идентификатор кодека : 2000
Продолжительность : 1 ч. 12 м.
Вид битрейта : Постоянный
Битрейт : 320 Кбит/сек
Каналы : 6 каналов
Расположение каналов : Front: L C R, Side: L R, LFE
Частота : 48,0 КГц
Битовая глубина : 16 бит
Метод сжатия : С потерями
Размер потока : 166 Мбайт (12%)
Выравнивание : Разделение по промежуткам
Продолжительность промежутка : 40 мс. (1,00 видеокадр)
Время предзагрузки промежутка : 500 мс.



http://alt.rutor.org/torrent/7516/

http://screenshotcomparison.com/comparison/34321 - у конкурента серьёзно нарушен аспект (истинный аспект при его кропе: 720х375, у него 720х400) ошибка 6.7%, у меня 720х384 - ошибка 2.4%, перекроп снизу, квадраты и затемненный кадр, неоправданно высокий битрейт видео - 2481 кбпс, звук АС3 2.0, у меня АС3 5.1.



   Похожие торренты   Торрент   Размер 
В этой теме нет новых непрочитанных сообщений. Новые приключения Бабки Ёжки (2008) DVDRip от Youtracker

12 | 14

747.42 МБ

В этой теме нет новых непрочитанных сообщений. Новые приключения Бабки Ёжки (2008) DVDRip-AVC от Youtracker

26 | 7

1.44 ГБ

В этой теме нет новых непрочитанных сообщений. Новые приключения Бабки Ёжки (2008) DVD5 R5 от Youtracker

32 | 5

3.8 ГБ

В этой теме нет новых непрочитанных сообщений. Новые приключения Бабки Ёжки (2008) DVDRip

19 | 6

1.43 ГБ

В этой теме нет новых непрочитанных сообщений. Смешарики. Новые приключения (2013) DVDRip от Youtracker | лицензия

153 | 21

3.21 ГБ

В этой теме нет новых непрочитанных сообщений. Смешарики. Новые приключения (2013) DVDRip-AVC от Youtracker | лицензия

112 | 6

3.19 ГБ

В этой теме нет новых непрочитанных сообщений. Новые приключения Белоснежки / Happily Ever After (1990) DVDRip-AVC от Youtracker | P

4 | 2

744.3 МБ




Вы не можете начинать темы
Вы не можете отвечать на сообщения
Вы не можете редактировать свои сообщения
Вы не можете удалять свои сообщения
Вы не можете добавлять вложения

Перейти:  
Для Мосгорсуда, Роскомнадзора и рекламодателей: mosgorsud-torrent[собачка]yandex.ru
 Вход
ppkBB3cker v.2 © 2008-2014 @ PPK
[ Time : 0.025s | 16 Queries | GZIP : Off ]

Торрент трекер RUTOR.IN, Не можете зайти на rutor.org? Какой новый адрес рутор? Какое зеркало рутор? Не работает rutor.org и зеркала? Тогда наш торрент специально для вас. Rutor.in неофициальное зеркало rutor. В случае если у Вас заблокирован rutor или вдруг Вы не можете на него зайти, то Вы без труда сможете скачать бесплатно и без рекламы последние новинки кино, игр, сериалов и прочего у нас, на Rutor.in. Не нужно использовать прокси, чтобы зайти на рутор, достаточно воспользоваться нашим ресурсом. Все новые фильмы, игры, сериалы, книги и музыка за 2013 и 2014 годы через торрент бесплатно. Скачивайте фильмы в хорошем качестве, игры для пк, xbox, playstation без регистрации. У нас вы найдете новые Зарубежные сериалы и Русские сериалы 2013, 2014, 2015 годов. Оставайтесь с нами, качайте любимые фильмы, игры, сериалы, книги и музыку.