img image001 image001 image001 image001 image001 image001 image001 image001 image001 image001 image001 image001 image001 image001 image001

Planets Sun Sun Sun
Статистика раздачи
Автор: Снежана | Размер: 747.42 МБ | Добавлен: 11 авг 2013
Раздают: 12    Качают: 14
Скачать торрент
Скачать торрент
Описание торрента

СообщениеДобавлено: 11 авг 2013 

#77
Страна: Россия
Студия: UMP
Жанр: мультфильм, детский
Год выпуска: 2008
Продолжительность: 01:12:56

Перевод: не требуется
Оригинальная аудиодорожка: русский
Cубтитры: нет

Режиссер: Николай Титов, Октябрина Потапова

Роли озвучивали: Валентин Гафт, Дмитрий Назаров, Татьяна Бондаренко, Александр Пожаров, Дмитрий Филимонов

Описание: «Новые приключения Бабки Ёжки» — это продолжение истории о маленькой девочке, воспитанной в волшебном лесу сказочными персонажами: Бабой-Ягой, Кощеем Бессмертным, Лешим, Водяным и Кикиморой.






Качество: DVDRip (DVD5 R5)
Формат: AVI

Видео: 720x384 (1.85:1), 25.000 fps, XviD ~ 1296 kbps avg, 0.187 bit/pixel
Аудио: 48 kHz, МР3, 2 ch, 128 kbps, русский

Раздача от:
Общее
Полное имя : Novye.priklyucheniya.Babki.Yejki.2008.DVDRip.745MB_[Youtracker]_by_avproh.avi
Формат : AVI
Формат/Информация : Audio Video Interleave
Размер файла : 747 Мбайт
Продолжительность : 1 ч. 12 м.
Общий поток : 1433 Кбит/сек
Программа кодирования : VirtualDubModRus 1.5.10.2 (build 2542/release)
Библиотека кодирования : VirtualDubMod build 2542/release

Видео
Идентификатор : 0
Формат : MPEG-4 Visual
Профиль формата : Advanced Simple@L5
Параметр BVOP формата : 1
Параметр QPel формата : Нет
Параметр GMC формата : Без точки перехода
Параметр матрицы формата : Выборочная
Идентификатор кодека : XVID
Идентификатор кодека/Подсказка : XviD
Продолжительность : 1 ч. 12 м.
Битрейт : 1296 Кбит/сек
Ширина : 720 пикселей
Высота : 384 пикселя
Соотношение сторон : 1,85:1
Частота кадров : 25,000 кадров/сек
Цветовое пространство : YUV
Субдискретизация насыщенности : 4:2:0
Битовая глубина : 8 бит
Тип развёртки : Прогрессивная
Метод сжатия : С потерями
Бит/(Пиксели*Кадры) : 0.187
Размер потока : 676 Мбайт (90%)
Библиотека кодирования : XviD 65

Аудио
Идентификатор : 1
Формат : MPEG Audio
Версия формата : Version 1
Профиль формата : Layer 3
Режим : Joint stereo
Расширение режима : MS Stereo
Идентификатор кодека : 55
Идентификатор кодека/Подсказка : MP3
Продолжительность : 1 ч. 12 м.
Вид битрейта : Постоянный
Битрейт : 128 Кбит/сек
Каналы : 2 канала
Частота : 48,0 КГц
Метод сжатия : С потерями
Размер потока : 66,5 Мбайт (9%)
Выравнивание : Соединение по промежуткам
Продолжительность промежутка : 40 мс. (1,00 видеокадр)
Время предзагрузки промежутка : 504 мс.





   Похожие торренты   Торрент   Размер 
В этой теме нет новых непрочитанных сообщений. Новые приключения Бабки Ёжки (2008) DVDRip от Youtracker

18 | 7

1.39 ГБ

В этой теме нет новых непрочитанных сообщений. Новые приключения Бабки Ёжки (2008) DVDRip-AVC от Youtracker

26 | 7

1.44 ГБ

В этой теме нет новых непрочитанных сообщений. Новые приключения Бабки Ёжки (2008) DVD5 R5 от Youtracker

32 | 5

3.8 ГБ

В этой теме нет новых непрочитанных сообщений. Новые приключения Бабки Ёжки (2008) DVDRip

19 | 6

1.43 ГБ

В этой теме нет новых непрочитанных сообщений. Новые приключения Белоснежки / Happily Ever After (1990) DVDRip от Youtracker | P

37 | 2

744.96 МБ

В этой теме нет новых непрочитанных сообщений. Смешарики. Новые приключения (2013) DVDRip от Youtracker | лицензия

153 | 21

3.21 ГБ

В этой теме нет новых непрочитанных сообщений. Смешарики. Новые приключения (2013) DVDRip-AVC от Youtracker | лицензия

112 | 6

3.19 ГБ




Вы не можете начинать темы
Вы не можете отвечать на сообщения
Вы не можете редактировать свои сообщения
Вы не можете удалять свои сообщения
Вы не можете добавлять вложения

Перейти:  
Для Мосгорсуда, Роскомнадзора и рекламодателей: mosgorsud-torrent[собачка]yandex.ru
 Вход
ppkBB3cker v.2 © 2008-2014 @ PPK
[ Time : 0.041s | 16 Queries | GZIP : Off ]

cron