img image001 image001 image001 image001 image001 image001 image001 image001 image001 image001 image001 image001 image001 image001 image001 image001

Planets Sun Sun Sun
Статистика раздачи
Автор: Снежана | Размер: 1.45 ГБ | Добавлен: 11 авг 2013
Раздают: 20    Качают: 4
Скачать торрент
Скачать торрент
Описание торрента

СообщениеДобавлено: 11 авг 2013 

12 подвигов Астерикса / Les douze travaux d'Asterix / The Twelve Tasks of Asterix


#77

Страна: Франция, Германия
Жанр: фэнтези, комедия, приключения
Продолжительность: 01:18:11
Год выпуска: 1976
Перевод: Профессиональный (многоголосый закадровый)
Оригинальная аудиодорожка: немецкая
Субтитры: нет

Режиссёр: Рене Госинни / Rene Goscinny, Генри Грюель / Henri Gruel

Описание: 50 год до нашей эры. Великому Юлию Цезарю хуже горькой редьки надоели маленькая галльская деревушка, ее веселые и непокорные обитатели и их волшебное зелье. Как знать, может быть они и вправду боги? Но Цезарь не был бы Цезарем, если бы примирился с подобной ересью.

Он решает дать Астериксу и его друзьям двенадцать заданий, выполнить которые не под силу ни одному смертному. Сказано-сделано. Конечно, времена Геркулеса давно прошли. Но при чем Геркулес, если есть Астерикс и Обеликс?

Именно им вождь деревни Жизнестатистикс и поручает принять августейший вызов. Друзьям же только того и надо — ведь приключения продолжаются, а значит веселая жизнь обеспечена!



Качество: DVDRip
Формат: AVI
Видео кодек: XviD
Аудио кодек: AC3
Видео: 672x400 (1.68:1), 25 fps, XviD build 50 ~2263 kbps avg, 0.34 bit/pixel
Аудио #1: 48 kHz, AC3 Dolby Digital, 2/0 (L,R) ch, ~192 kbps | MVO
Аудио #2: 48 kHz, AC3 Dolby Digital, 2/0 (L,R) ch, ~192 kbps | Original

Раздача от:


D:The_Twelve_Tasks_of_Asterix.DVDRip.by_dexter_lex.avi
General
Complete name : D:The_Twelve_Tasks_of_Asterix.DVDRip.by_dexter_lex.avi
Format : AVI
Format/Info : Audio Video Interleave
File size : 1.45 GiB
Duration : 1h 18mn
Overall bit rate : 2 661 Kbps
Writing application : VirtualDubMod 1.5.10.3 | www.virtualdub-fr.org || (build 2550/release)
Writing library : VirtualDubMod build 2550/release
Video #0
ID : 0
Format : MPEG-4 Visual
Format profile : Advanced Simple@L5
Format settings, BVOP : 1
Format settings, QPel : No
Format settings, GMC : No warppoints
Format settings, Matrix : Custom
Codec ID : XVID
Codec ID/Hint : XviD
Duration : 1h 18mn
Bit rate : 2 263 Kbps
Width : 672 pixels
Height : 400 pixels
Display aspect ratio : 1.68:1
Frame rate : 25.000 fps
Color space : YUV
Chroma subsampling : 4:2:0
Bit depth : 8 bits
Scan type : Progressive
Compression mode : Lossy
Bits/(Pixel*Frame) : 0.337
Stream size : 1.24 GiB (85%)
Writing library : XviD 50
Audio #1
ID : 1
Format : AC-3
Format/Info : Audio Coding 3
Mode extension : CM (complete main)
Codec ID : 2000
Duration : 1h 18mn
Bit rate mode : Constant
Bit rate : 192 Kbps
Channel(s) : 2 channels
Channel positions : Front: L R
Sampling rate : 48.0 KHz
Bit depth : 16 bits
Compression mode : Lossy
Stream size : 107 MiB (7%)
Alignment : Split accross interleaves
Interleave, duration : 40 ms (1.00 video frame)
Interleave, preload duration : 500 ms
Audio #2
ID : 2
Format : AC-3
Format/Info : Audio Coding 3
Mode extension : CM (complete main)
Codec ID : 2000
Duration : 1h 18mn
Bit rate mode : Constant
Bit rate : 192 Kbps
Channel(s) : 2 channels
Channel positions : Front: L R
Sampling rate : 48.0 KHz
Bit depth : 16 bits
Compression mode : Lossy
Stream size : 107 MiB (7%)
Alignment : Split accross interleaves
Interleave, duration : 40 ms (1.00 video frame)
Interleave, preload duration : 500 ms



   Похожие торренты   Торрент   Размер 
В этой теме нет новых непрочитанных сообщений. Астерикс против Цезаря / Asterix Versus Caesar / Asterix et la surprise de Cesar (1985) BDRip-AVC от Leonardo and Scarabey

86 | 13

1.46 ГБ

В этой теме нет новых непрочитанных сообщений. Астерикс против Цезаря / Asterix Versus Caesar / Asterix et la surprise de Cesar (1985) BDRip 720p от Leonardo and Scarabey

8 | 12

7.09 ГБ

В этой теме нет новых непрочитанных сообщений. Астерикс: Земля Богов / Astérix: Le domaine des dieux / Asterix: The Mansions of the Gods (2014) BDRip 1080p от Ash61 | 3D-Video | halfOU

148 | 10

4.12 ГБ

В этой теме нет новых непрочитанных сообщений. Астерикс из Галлии / Astérix le Gaulois (1967) HDRip | P

16 | 2

741.74 МБ

В этой теме нет новых непрочитанных сообщений. Астерикс и Клеопатра / Asterix et Cleopatre (1968) HDRip | P

17 | 0

742.83 МБ

В этой теме нет новых непрочитанных сообщений. OST - Астерикс: Земля Богов / Asterix: Le Domaine Des Dieux (2014) MP3

24 | 3

113.11 МБ

В этой теме нет новых непрочитанных сообщений. Астерикс и викинги / Asterix and the Vikings (2006) BDRip-AVC от New-Team | D

244 | 20

744.84 МБ




Вы не можете начинать темы
Вы не можете отвечать на сообщения
Вы не можете редактировать свои сообщения
Вы не можете удалять свои сообщения
Вы не можете добавлять вложения

Перейти:  
 Вход
ppkBB3cker v.2 © 2008-2014 @ PPK
[ Time : 0.034s | 19 Queries | GZIP : Off ]

cron