img image001 image001 image001 image001 image001 image001 image001 image001 image001 image001 image001 image001 image001 image001 image001

Planets Sun Sun Sun
Статистика раздачи
Автор: Снежана | Размер: 1.45 ГБ | Добавлен: 12 авг 2013
Раздают: 56    Качают: 11
Скачать торрент
Скачать торрент
Описание торрента

СообщениеДобавлено: 12 авг 2013 

12 подвигов Астерикса / Les douze travaux d'Asterix / The Twelve Tasks of Asterix


#77

Страна: Франция, Германия
Жанр: фэнтези, комедия, приключения
Продолжительность: 01:18:11
Год выпуска: 1976
Перевод: Профессиональный (многоголосый закадровый)
Оригинальная аудиодорожка: немецкая
Субтитры: нет

Режиссёр: Рене Госинни / Rene Goscinny, Генри Грюель / Henri Gruel

Описание: 50 год до нашей эры. Великому Юлию Цезарю хуже горькой редьки надоели маленькая галльская деревушка, ее веселые и непокорные обитатели и их волшебное зелье. Как знать, может быть они и вправду боги? Но Цезарь не был бы Цезарем, если бы примирился с подобной ересью.

Он решает дать Астериксу и его друзьям двенадцать заданий, выполнить которые не под силу ни одному смертному. Сказано-сделано. Конечно, времена Геркулеса давно прошли. Но при чем Геркулес, если есть Астерикс и Обеликс?

Именно им вождь деревни Жизнестатистикс и поручает принять августейший вызов. Друзьям же только того и надо — ведь приключения продолжаются, а значит веселая жизнь обеспечена!



Качество: DVDRip-AVC
Формат: MKV
Видео кодек: H264
Аудио кодек: AC3
Видео: 720x456@754x456 (1.654), 25 fps, H264, 2 268 Kbps, 0.276 bit/pixel
Аудио #1: 48 kHz, AC3 Dolby Digital, 2/0 (L,R) ch, ~192 kbps | MVO
Аудио #2: 48 kHz, AC3 Dolby Digital, 2/0 (L,R) ch, ~192 kbps | Original

Раздача от:


D:Мои рипыThe_Twelve_Tasks_of_Asterix.DVDRip-AVC.by_dexter_lex.mkv
General
Unique ID : 188425978341528025460864848025285231661 (0x8DC185FD7768AD8486FA29558123042D)
Complete name : D:Мои рипыThe_Twelve_Tasks_of_Asterix.DVDRip-AVC.by_dexter_lex.mkv
Format : Matroska
Format version : Version 4 / Version 2
File size : 1.45 GiB
Duration : 1h 18mn
Overall bit rate : 2 654 Kbps
Encoded date : UTC 2013-08-01 13:51:13
Writing application : mkvmerge v6.1.0 ('Old Devil') built on Mar 4 2013 09:10:42
Writing library : libebml v1.3.0 + libmatroska v1.4.0
Video #1
ID : 1
Format : AVC
Format/Info : Advanced Video Codec
Format profile : High@L4.1
Format settings, CABAC : Yes
Format settings, ReFrames : 11 frames
Codec ID : V_MPEG4/ISO/AVC
Duration : 1h 18mn
Bit rate : 2 268 Kbps
Width : 720 pixels
Height : 456 pixels
Display aspect ratio : 1.654
Original display aspect ratio : 1.656
Frame rate : 25.000 fps
Color space : YUV
Chroma subsampling : 4:2:0
Bit depth : 8 bits
Scan type : Progressive
Bits/(Pixel*Frame) : 0.276
Stream size : 1.21 GiB (84%)
Writing library : x264 core 130 r2273 b3065e6
Encoding settings : cabac=1 / ref=11 / deblock=1:-2:-1 / analyse=0x3:0x113 / me=umh / subme=10 / psy=1 / psy_rd=1.00:0.20 / mixed_ref=1 / me_range=32 / chroma_me=1 / trellis=2 / 8x8dct=1 / cqm=0 / deadzone=21,11 / fast_pskip=0 / chroma_qp_offset=-3 / threads=6 / lookahead_threads=1 / sliced_threads=0 / nr=0 / decimate=0 / interlaced=0 / bluray_compat=0 / constrained_intra=0 / bframes=8 / b_pyramid=2 / b_adapt=2 / b_bias=0 / direct=3 / weightb=1 / open_gop=0 / weightp=2 / keyint=250 / keyint_min=25 / scenecut=40 / intra_refresh=0 / rc_lookahead=60 / rc=2pass / mbtree=1 / bitrate=2268 / ratetol=1.0 / qcomp=0.60 / qpmin=0 / qpmax=69 / qpstep=4 / cplxblur=20.0 / qblur=0.5 / ip_ratio=1.40 / aq=1:1.00
Default : Yes
Forced : No
Audio #2
ID : 2
Format : AC-3
Format/Info : Audio Coding 3
Mode extension : CM (complete main)
Codec ID : A_AC3
Duration : 1h 18mn
Bit rate mode : Constant
Bit rate : 192 Kbps
Channel(s) : 2 channels
Channel positions : Front: L R
Sampling rate : 48.0 KHz
Bit depth : 16 bits
Compression mode : Lossy
Stream size : 107 MiB (7%)
Title : MVO
Language : Russian
Default : Yes
Forced : No
Audio #3
ID : 3
Format : AC-3
Format/Info : Audio Coding 3
Mode extension : CM (complete main)
Codec ID : A_AC3
Duration : 1h 18mn
Bit rate mode : Constant
Bit rate : 192 Kbps
Channel(s) : 2 channels
Channel positions : Front: L R
Sampling rate : 48.0 KHz
Bit depth : 16 bits
Compression mode : Lossy
Stream size : 107 MiB (7%)
Title : Original
Language : German
Default : No
Forced : No




   Похожие торренты   Торрент   Размер 
В этой теме нет новых непрочитанных сообщений. 12 подвигов Астерикса / Les douze travaux d'Asterix / The Twelve Tasks of Asterix (1976) DVDRip от Youtracker

7 | 9

744.26 МБ

В этой теме нет новых непрочитанных сообщений. 12 подвигов Астерикса / Les douze travaux d'Asterix / The Twelve Tasks of Asterix (1976) DVDRip от Youtracker

20 | 4

1.45 ГБ

В этой теме нет новых непрочитанных сообщений. Большой бой Астерикса / Asterix and the Big Fight / Asterix et le coup du menhir (1989) BDRip от HQCLUB

40 | 8

1.45 ГБ

В этой теме нет новых непрочитанных сообщений. Большой бой Астерикса / Astérix et le coup du menhir / Asterix and the Big Fight (1989) HDRip от BitTracker | P

59 | 3

744.22 МБ

В этой теме нет новых непрочитанных сообщений. Астерикс и Клеопатра / Asterix et Cleopatre / Asterix and Cleopatra (1968) DVDRip-AVC от Youtracker | P, A

20 | 11

1.51 ГБ

В этой теме нет новых непрочитанных сообщений. Астерикс и Клеопатра / Asterix et Cleopatre / Asterix and Cleopatra (1968) DVDRip от Youtracker

22 | 5

741.75 МБ

В этой теме нет новых непрочитанных сообщений. Астерикс из Галлии / Asterix the Gaul / Asterix le Gaulois (1967) DVDRip-AVC от Gellard

27 | 11

1.46 ГБ




Вы не можете начинать темы
Вы не можете отвечать на сообщения
Вы не можете редактировать свои сообщения
Вы не можете удалять свои сообщения
Вы не можете добавлять вложения

Перейти:  
Для Мосгорсуда, Роскомнадзора и рекламодателей: mosgorsud-torrent[собачка]yandex.ru
 Вход
ppkBB3cker v.2 © 2008-2014 @ PPK
[ Time : 0.018s | 14 Queries | GZIP : Off ]

Торрент трекер RUTOR.IN, Не можете зайти на rutor.org? Какой новый адрес рутор? Какое зеркало рутор? Не работает rutor.org и зеркала? Тогда наш торрент специально для вас. Rutor.in неофициальное зеркало rutor. В случае если у Вас заблокирован rutor или вдруг Вы не можете на него зайти, то Вы без труда сможете скачать бесплатно и без рекламы последние новинки кино, игр, сериалов и прочего у нас, на Rutor.in. Не нужно использовать прокси, чтобы зайти на рутор, достаточно воспользоваться нашим ресурсом. Все новые фильмы, игры, сериалы, книги и музыка за 2013 и 2014 годы через торрент бесплатно. Скачивайте фильмы в хорошем качестве, игры для пк, xbox, playstation без регистрации. У нас вы найдете новые Зарубежные сериалы и Русские сериалы 2013, 2014, 2015 годов. Оставайтесь с нами, качайте любимые фильмы, игры, сериалы, книги и музыку.