img image001 image001 image001 image001 image001 image001 image001 image001 image001 image001 image001 image001 image001 image001 image001

Planets Sun Sun Sun
Статистика раздачи
Автор: Снежана | Размер: 4.18 ГБ | Добавлен: 12 авг 2013
Раздают: 94    Качают: 14
Скачать торрент
Скачать торрент
Описание торрента

СообщениеДобавлено: 12 авг 2013 

#77

Информация о фильме
Название: Сборник мультфильмов "Падал прошлогодний снег".
Год выхода: 1981-1986
Жанр: Мультфильм
Режиссер: Александр Татарский, Анатолий Солин, Виталий Песков, Гарри Бардин, Игорь Ковалёв.
В ролях: рассказчик-Станислав Садальский

О фильме:
Содержание:
1.Падал прошлогодний снег
2.Пластилиновая ворона
3.Великолепный Гоша (10 серий)
4.Пиф-паф ой-ой-ой
5.Крылья, ноги и хвосты

Падал прошлогодний снег.
Анимационный фильм, снятый в 1983 году советским кинорежиссером Александром Татарским по сценарию Сергея Иванова. Выполнен при помощи техники пластилиновой анимации. В основе сюжета — забавная новогодняя сказка про мужичка, отправившегося на поиски ёлки.
Мультфильм выделяется тем, что афористичные реплики персонажей мультфильма, полные абсурдистского юмора, превратились в народные поговорки.

Пластилиновая ворона.
Мультипликационный фильм 1981 года Александра Татарского. Мультфильм разделён на три независимые части, иллюстрирующие песни: «О картинах», «Игра» и «А может, а может…».

Великолепный Гоша.
«Великолепный Гоша» — популярный советский десятисерийный мультсериал, проект А. Курляндского. Выпущен киностудией «Экран».

Пиф-паф ой-ой-ой.
«Пиф-паф, ой-ой-ой!» — мультипликационный фильм, театральная пародия.
Пародия на театральные штампы, разыгранная на сюжет популярного шуточного стихотворения. Для взрослых.

Крылья, ноги и хвосты.
«Крылья, ноги и хвосты» — советский мультипликационный фильм. По свидетельству Александра Татарского был снят в 1985 году для альманаха «Кубик», но не понравился директору студии «Экран» Б. М. Хессину. На экран вышел лишь в следующем году.
Мультфильм о том, как гриф учил страуса летать. Приобрёл значительное количество поклонников из-за своеобразной манеры рисунка и из-за достаточно циничного сюжета, с фразами, ставшими «крылатыми».

Страна: Россия
Продолжительность: 01:39:00
Перевод: Не требуется

Файл
Кодек: DVD-video
Качество: DVD5
Видео: PAL 4:3 (720x576) VBR
Звук: Русский (Dolby AC3, 2 ch) 192 kbps
Субтитры:
нет

Общее
Полное имя : C:UsersAmberDesktopСборник мультфильмов - Падал прошлогодний снег. 1981-1986VIDEO_TS.BUP
Формат : DVD Video
Профиль формата : Menu
Размер файла : 8,00 Кбайт
Режим общего битрейта : Переменный

Видео
Идентификатор : 224 (0xE0)
Формат : MPEG Video
Версия формата : Version 1
Вид битрейта : Переменный
Ширина : 720 пикселей
Высота : 480 пикселей
Соотношение сторон : 4:3
Частота кадров : 29,970 кадров/сек
Стандарт вещания : NTSC
Метод сжатия : С потерями

Общее
Полное имя : C:UsersAmberDesktopСборник мультфильмов - Падал прошлогодний снег. 1981-1986VIDEO_TS.IFO
Формат : DVD Video
Профиль формата : Menu
Размер файла : 8,00 Кбайт
Режим общего битрейта : Переменный

Видео
Идентификатор : 224 (0xE0)
Формат : MPEG Video
Версия формата : Version 1
Вид битрейта : Переменный
Ширина : 720 пикселей
Высота : 480 пикселей
Соотношение сторон : 4:3
Частота кадров : 29,970 кадров/сек
Стандарт вещания : NTSC
Метод сжатия : С потерями

Общее
Полное имя : C:UsersAmberDesktopСборник мультфильмов - Падал прошлогодний снег. 1981-1986VTS_01_0.BUP
Формат : DVD Video
Профиль формата : Program
Размер файла : 68,0 Кбайт
Продолжительность : 1 ч. 39 м.
Режим общего битрейта : Переменный
Общий поток : 94 бит/сек

Видео
Идентификатор : 224 (0xE0)
Формат : MPEG Video
Версия формата : Version 2
Продолжительность : 1 ч. 39 м.
Вид битрейта : Переменный
Ширина : 720 пикселей
Высота : 576 пикселей
Соотношение сторон : 4:3
Частота кадров : 25,000 кадров/сек
Стандарт вещания : PAL
Метод сжатия : С потерями

Аудио
Идентификатор : 128 (0x80)
Формат : AC-3
Формат/Информация : Audio Coding 3
Продолжительность : 1 ч. 39 м.
Каналы : 2 канала
Частота : 48,0 КГц
Метод сжатия : С потерями
Язык : English

Меню #1
Продолжительность : 10 с.
00:00:00.000 : Chapter 1
List (Audio) : 0

Меню #2
Продолжительность : 1 ч. 39 м.
00:00:00.000 : Chapter 1
00:19:51.320 : Chapter 2
00:28:24.200 : Chapter 3
00:31:45.400 : Chapter 4
00:36:25.160 : Chapter 5
00:40:38.680 : Chapter 6
00:45:18.160 : Chapter 7
00:48:16.520 : Chapter 8
00:52:43.080 : Chapter 9
00:57:44.360 : Chapter 10
01:05:18.320 : Chapter 11
01:10:12.120 : Chapter 12
01:18:17.520 : Chapter 13
01:35:06.520 : Chapter 14
List (Audio) : 0

Общее
Полное имя : C:UsersAmberDesktopСборник мультфильмов - Падал прошлогодний снег. 1981-1986VTS_01_0.IFO
Формат : DVD Video
Профиль формата : Program
Размер файла : 68,0 Кбайт
Продолжительность : 1 ч. 39 м.
Режим общего битрейта : Переменный
Общий поток : 94 бит/сек

Видео
Идентификатор : 224 (0xE0)
Формат : MPEG Video
Версия формата : Version 2
Продолжительность : 1 ч. 39 м.
Вид битрейта : Переменный
Ширина : 720 пикселей
Высота : 576 пикселей
Соотношение сторон : 4:3
Частота кадров : 25,000 кадров/сек
Стандарт вещания : PAL
Метод сжатия : С потерями

Аудио
Идентификатор : 128 (0x80)
Формат : AC-3
Формат/Информация : Audio Coding 3
Продолжительность : 1 ч. 39 м.
Каналы : 2 канала
Частота : 48,0 КГц
Метод сжатия : С потерями
Язык : English

Меню #1
Продолжительность : 10 с.
00:00:00.000 : Chapter 1
List (Audio) : 0

Меню #2
Продолжительность : 1 ч. 39 м.
00:00:00.000 : Chapter 1
00:19:51.320 : Chapter 2
00:28:24.200 : Chapter 3
00:31:45.400 : Chapter 4
00:36:25.160 : Chapter 5
00:40:38.680 : Chapter 6
00:45:18.160 : Chapter 7
00:48:16.520 : Chapter 8
00:52:43.080 : Chapter 9
00:57:44.360 : Chapter 10
01:05:18.320 : Chapter 11
01:10:12.120 : Chapter 12
01:18:17.520 : Chapter 13
01:35:06.520 : Chapter 14
List (Audio) : 0

Общее
Полное имя : C:UsersAmberDesktopСборник мультфильмов - Падал прошлогодний снег. 1981-1986VTS_01_0.VOB
Формат : MPEG-PS
Размер файла : 171 Мбайт
Продолжительность : 57 с.
Режим общего битрейта : Переменный
Общий поток : 24,9 Мбит/сек

Видео
Идентификатор : 224 (0xE0)
Формат : MPEG Video
Версия формата : Version 2
Профиль формата : Main@Main
Параметр BVOP формата : Да
Параметр матрицы формата : Выборочная
Параметр GOP формата : M=3, N=15
Продолжительность : 57 с.
Вид битрейта : Переменный
Битрейт : 24,2 Мбит/сек
Максимальный битрейт : 8000 Кбит/сек
Ширина : 720 пикселей
Высота : 576 пикселей
Соотношение сторон : 4:3
Частота кадров : 25,000 кадров/сек
Стандарт вещания : PAL
Цветовое пространство : YUV
Субдискретизация насыщенности : 4:2:0
Битовая глубина : 8 бит
Тип развёртки : Чересстрочная
Порядок развёртки : Нижнее поле первое
Метод сжатия : С потерями
Бит/(Пиксели*Кадры) : 2.335
TimeCode_FirstFrame : 00:00:00:00
TimeCode_Source : Group of pictures header
Размер потока : 167 Мбайт (97%)

Аудио
Идентификатор : 189 (0xBD)-128 (0x80)
Формат : AC-3
Формат/Информация : Audio Coding 3
Расширение режима : CM (complete main)
Параметр Endianness формата : Big
Режим смешивания : DVD-Video
Продолжительность : 57 с.
Вид битрейта : Постоянный
Битрейт : 192 Кбит/сек
Каналы : 2 канала
Расположение каналов : Front: L R
Частота : 48,0 КГц
Битовая глубина : 16 бит
Метод сжатия : С потерями
Размер потока : 1,32 Мбайт (1%)

Меню

Общее
Полное имя : C:UsersAmberDesktopСборник мультфильмов - Падал прошлогодний снег. 1981-1986VTS_01_1.VOB
Формат : MPEG-PS
Размер файла : 1024 Мбайт
Продолжительность : 19 м.
Общий поток : 7397 Кбит/сек

Видео
Идентификатор : 224 (0xE0)
Формат : MPEG Video
Версия формата : Version 2
Профиль формата : Main@Main
Параметр BVOP формата : Да
Параметр матрицы формата : Выборочная
Параметр GOP формата : M=3, N=15
Продолжительность : 19 м.
Битрейт : 7058 Кбит/сек
Максимальный битрейт : 9300 Кбит/сек
Ширина : 720 пикселей
Высота : 576 пикселей
Соотношение сторон : 4:3
Частота кадров : 25,000 кадров/сек
Стандарт вещания : PAL
Цветовое пространство : YUV
Субдискретизация насыщенности : 4:2:0
Битовая глубина : 8 бит
Тип развёртки : Чересстрочная
Порядок развёртки : Нижнее поле первое
Метод сжатия : С потерями
Бит/(Пиксели*Кадры) : 0.681
TimeCode_FirstFrame : 00:00:00:00
TimeCode_Source : Group of pictures header
Размер потока : 977 Мбайт (95%)

Аудио
Идентификатор : 189 (0xBD)-128 (0x80)
Формат : AC-3
Формат/Информация : Audio Coding 3
Расширение режима : CM (complete main)
Параметр Endianness формата : Big
Режим смешивания : DVD-Video
Продолжительность : 5 с. 600 мс.
Вид битрейта : Постоянный
Битрейт : 192 Кбит/сек
Каналы : 2 канала
Расположение каналов : Front: L R
Частота : 48,0 КГц
Битовая глубина : 16 бит
Метод сжатия : С потерями
Размер потока : 131 Кбайт (0%)

Меню

Общее
Полное имя : C:UsersAmberDesktopСборник мультфильмов - Падал прошлогодний снег. 1981-1986VTS_01_2.VOB
Формат : MPEG-PS
Размер файла : 1024 Мбайт

Видео
Идентификатор : 224 (0xE0)
Формат : MPEG Video
Версия формата : Version 2
Профиль формата : Main@Main
Параметр BVOP формата : Да
Параметр матрицы формата : Выборочная
Параметр GOP формата : Variable
Максимальный битрейт : 7000 Кбит/сек
Ширина : 720 пикселей
Высота : 576 пикселей
Соотношение сторон : 4:3
Частота кадров : 25,000 кадров/сек
Стандарт вещания : PAL
Цветовое пространство : YUV
Субдискретизация насыщенности : 4:2:0
Битовая глубина : 8 бит
Тип развёртки : Чересстрочная
Порядок развёртки : Нижнее поле первое
Метод сжатия : С потерями
TimeCode_FirstFrame : 00:19:21:03
TimeCode_Source : Group of pictures header

Аудио
Идентификатор : 189 (0xBD)-128 (0x80)
Формат : AC-3
Формат/Информация : Audio Coding 3
Расширение режима : CM (complete main)
Параметр Endianness формата : Big
Режим смешивания : DVD-Video
Вид битрейта : Постоянный
Битрейт : 192 Кбит/сек
Каналы : 2 канала
Расположение каналов : Front: L R
Частота : 48,0 КГц
Битовая глубина : 16 бит
Метод сжатия : С потерями
Задержка видео : -184 мс.

Меню

Общее
Полное имя : C:UsersAmberDesktopСборник мультфильмов - Падал прошлогодний снег. 1981-1986VTS_01_3.VOB
Формат : MPEG-PS
Размер файла : 1024 Мбайт
Продолжительность : 27 м.
Режим общего битрейта : Переменный
Общий поток : 5156 Кбит/сек

Видео
Идентификатор : 224 (0xE0)
Формат : MPEG Video
Версия формата : Version 2
Профиль формата : Main@Main
Параметр BVOP формата : Да
Параметр матрицы формата : По умолчанию
Параметр GOP формата : M=3, N=13
Продолжительность : 27 м.
Вид битрейта : Переменный
Битрейт : 4861 Кбит/сек
Максимальный битрейт : 8500 Кбит/сек
Ширина : 720 пикселей
Высота : 576 пикселей
Соотношение сторон : 4:3
Частота кадров : 25,000 кадров/сек
Стандарт вещания : PAL
Цветовое пространство : YUV
Субдискретизация насыщенности : 4:2:0
Битовая глубина : 8 бит
Тип развёртки : Чересстрочная
Порядок развёртки : Верхнее поле первое
Метод сжатия : С потерями
Бит/(Пиксели*Кадры) : 0.469
TimeCode_FirstFrame : 00:15:20:23
TimeCode_Source : Group of pictures header
Размер потока : 965 Мбайт (94%)
Основные цвета : BT.601 PAL
Характеристики трансфера : BT.470 System B, BT.470 System G
Коэффициенты матрицы : BT.601

Аудио
Идентификатор : 189 (0xBD)-128 (0x80)
Формат : AC-3
Формат/Информация : Audio Coding 3
Расширение режима : CM (complete main)
Параметр Endianness формата : Big
Режим смешивания : DVD-Video
Продолжительность : 27 м.
Вид битрейта : Постоянный
Битрейт : 192 Кбит/сек
Каналы : 2 канала
Расположение каналов : Front: L R
Частота : 48,0 КГц
Битовая глубина : 16 бит
Метод сжатия : С потерями
Задержка видео : -128 мс.
Размер потока : 38,1 Мбайт (4%)

Меню

Общее
Полное имя : C:UsersAmberDesktopСборник мультфильмов - Падал прошлогодний снег. 1981-1986VTS_01_4.VOB
Формат : MPEG-PS
Размер файла : 1024 Мбайт
Режим общего битрейта : Переменный

Видео
Идентификатор : 224 (0xE0)
Формат : MPEG Video
Версия формата : Version 2
Профиль формата : Main@Main
Параметр BVOP формата : Да
Параметр матрицы формата : По умолчанию
Параметр GOP формата : Variable
Вид битрейта : Переменный
Максимальный битрейт : 8500 Кбит/сек
Ширина : 720 пикселей
Высота : 576 пикселей
Соотношение сторон : 4:3
Частота кадров : 25,000 кадров/сек
Стандарт вещания : PAL
Цветовое пространство : YUV
Субдискретизация насыщенности : 4:2:0
Битовая глубина : 8 бит
Тип развёртки : Чересстрочная
Порядок развёртки : Верхнее поле первое
Метод сжатия : С потерями
TimeCode_FirstFrame : 00:38:28:22
TimeCode_Source : Group of pictures header
Основные цвета : BT.601 PAL
Характеристики трансфера : BT.470 System B, BT.470 System G
Коэффициенты матрицы : BT.601

Аудио
Идентификатор : 189 (0xBD)-128 (0x80)
Формат : AC-3
Формат/Информация : Audio Coding 3
Расширение режима : CM (complete main)
Параметр Endianness формата : Big
Режим смешивания : DVD-Video
Вид битрейта : Постоянный
Битрейт : 192 Кбит/сек
Каналы : 2 канала
Расположение каналов : Front: L R
Частота : 48,0 КГц
Битовая глубина : 16 бит
Метод сжатия : С потерями
Задержка видео : -120 мс.

Меню

Общее
Полное имя : C:UsersAmberDesktopСборник мультфильмов - Падал прошлогодний снег. 1981-1986VTS_01_5.VOB
Формат : MPEG-PS
Размер файла : 9,19 Мбайт
Продолжительность : 34 с.
Режим общего битрейта : Переменный
Общий поток : 2239 Кбит/сек

Видео
Идентификатор : 224 (0xE0)
Формат : MPEG Video
Версия формата : Version 2
Профиль формата : Main@Main
Параметр BVOP формата : Да
Параметр матрицы формата : Выборочная
Параметр GOP формата : Variable
Продолжительность : 34 с.
Вид битрейта : Переменный
Битрейт : 2003 Кбит/сек
Максимальный битрейт : 9800 Кбит/сек
Ширина : 720 пикселей
Высота : 576 пикселей
Соотношение сторон : 4:3
Частота кадров : 25,000 кадров/сек
Стандарт вещания : PAL
Цветовое пространство : YUV
Субдискретизация насыщенности : 4:2:0
Битовая глубина : 8 бит
Тип развёртки : Прогрессивная
Порядок развёртки : Верхнее поле первое
Метод сжатия : С потерями
Бит/(Пиксели*Кадры) : 0.193
TimeCode_FirstFrame : 00:03:19:16
TimeCode_Source : Group of pictures header
Размер потока : 8,19 Мбайт (89%)

Аудио
Идентификатор : 189 (0xBD)-128 (0x80)
Формат : AC-3
Формат/Информация : Audio Coding 3
Расширение режима : CM (complete main)
Параметр Endianness формата : Big
Режим смешивания : DVD-Video
Продолжительность : 34 с.
Вид битрейта : Постоянный
Битрейт : 192 Кбит/сек
Каналы : 2 канала
Расположение каналов : Front: L R
Частота : 48,0 КГц
Битовая глубина : 16 бит
Метод сжатия : С потерями
Задержка видео : -200 мс.
Размер потока : 807 Кбайт (9%)





   Похожие торренты   Торрент   Размер 
В этой теме нет новых непрочитанных сообщений. Падал прошлогодний снег 2 (2005) PC

34 | 10

1015.92 МБ

В этой теме нет новых непрочитанных сообщений. Падал прошлогодний снег (1983) DVDRip

801 | 31

499.15 МБ

В этой теме нет новых непрочитанных сообщений. Падал прошлогодний снег (1983) DVDRip

356 | 18

266.2 МБ

В этой теме нет новых непрочитанных сообщений. Уральские Пельмени. Падал прошлогодний смех (2009) SATRip by KVNforAll

63 | 51

1.07 ГБ

В этой теме нет новых непрочитанных сообщений. Пластилиновая ворона. Сборник мультфильмов (1981-1986) DVDRip от R.G. Mega Best

244 | 21

644.16 МБ

В этой теме нет новых непрочитанных сообщений. Сборник мультфильмов-6 (1954 - 1986) DVD5

4 | 3

4.34 ГБ

В этой теме нет новых непрочитанных сообщений. Пластилиновая ворона / Сборник мультфильмов (1981) DVD5 by гаврила

25 | 11

2.77 ГБ




Вы не можете начинать темы
Вы не можете отвечать на сообщения
Вы не можете редактировать свои сообщения
Вы не можете удалять свои сообщения
Вы не можете добавлять вложения

Перейти:  
Для Мосгорсуда, Роскомнадзора и рекламодателей: mosgorsud-torrent[собачка]yandex.ru
 Вход
ppkBB3cker v.2 © 2008-2014 @ PPK
[ Time : 0.040s | 14 Queries | GZIP : Off ]

Торрент трекер RUTOR.IN, Не можете зайти на rutor.org? Какой новый адрес рутор? Какое зеркало рутор? Не работает rutor.org и зеркала? Тогда наш торрент специально для вас. Rutor.in неофициальное зеркало rutor. В случае если у Вас заблокирован rutor или вдруг Вы не можете на него зайти, то Вы без труда сможете скачать бесплатно и без рекламы последние новинки кино, игр, сериалов и прочего у нас, на Rutor.in. Не нужно использовать прокси, чтобы зайти на рутор, достаточно воспользоваться нашим ресурсом. Все новые фильмы, игры, сериалы, книги и музыка за 2013 и 2014 годы через торрент бесплатно. Скачивайте фильмы в хорошем качестве, игры для пк, xbox, playstation без регистрации. У нас вы найдете новые Зарубежные сериалы и Русские сериалы 2013, 2014, 2015 годов. Оставайтесь с нами, качайте любимые фильмы, игры, сериалы, книги и музыку.