img image001 image001 image001 image001 image001 image001 image001 image001 image001 image001 image001 image001 image001 image001 image001

Planets Sun Sun Sun
Статистика раздачи
Автор: Снежана | Размер: 3.21 ГБ | Добавлен: 12 авг 2013
Раздают: 153    Качают: 21
Скачать торрент
Скачать торрент
Описание торрента

СообщениеДобавлено: 12 авг 2013 

#77
Год выпуска: 2013
Страна: Россия
Жанр: мультсериал
Продолжительность: ~ 6.30 - 10.30 минут - серия

Перевод: не требуется
Субтитры: нет

Режиссеры: Олег Мусин, Анна Борисова, Катерина Савчук, Алексей Минченок, Наталья Мирзоян, Александра Аверьянова, Константин Бирюков, Илья Максимов

В ролях (озвучка): Владимир Постников, Вадим Бочанов, Ксения Бржезовская, Светлана Письмиченко, Сергей Мардарь, Михаил Черняк, Сауле Искакова

Описание: Жизнерадостные круглые друзья вернулись на наши экраны и всех удивили. Ведь в новом сезоне наши любимые Смешарики округлились окончательно — теперь они трехмерные! У меня двумерные :)



Исходник: 4 x DVD5 R5
Качество: DVDRip
Формат: AVI

Видео: 720x400 (16:9), 25.000 fps, XViD ~ 2000 kbps avg, 0.278 bit/pixel
Аудио: 48 kHz, АС3 2 ch, 192 kbps, русский

Раздача от:
01. Власть моды
02. Ничейный выигрыш
03. Пощады не будет
04. Непрощенный
05. Статистика
06. Наказуха
07. Я завтрашний, я вчерашний
08. Искусство кройки и житья
09. Степанида
10. Кибернюша
11. Машина времени
12. Одно из двух
13. Пандянка
14. Дикарь
15. Упаковщики
16. Вместо меня
17. Массы и расстояния
18. Кто смеется последним
19. Шуша
20. Иллюзионист
21. Кто подставил кролика Кроша?
22. Только никому не говори
23. Последняя ошибка Пина

Общее
Полное имя : Smeshariki.Novie.priklyucheniya.2013.O.DVDRip_[Youtracker]_by_avproh�1.avi
Формат : AVI
Формат/Информация : Audio Video Interleave
Размер файла : 102 Мбайт
Продолжительность : 6 м. 30 с.
Общий поток : 2202 Кбит/сек
Программа кодирования : VirtualDubModRus 1.5.10.2 (build 2542/release)
Библиотека кодирования : VirtualDubMod build 2542/release

Видео
Идентификатор : 0
Формат : MPEG-4 Visual
Профиль формата : Advanced Simple@L5
Параметр BVOP формата : 1
Параметр QPel формата : Нет
Параметр GMC формата : Без точки перехода
Параметр матрицы формата : Выборочная
Идентификатор кодека : XVID
Идентификатор кодека/Подсказка : XviD
Продолжительность : 6 м. 30 с.
Битрейт : 2000 Кбит/сек
Ширина : 720 пикселей
Высота : 400 пикселей
Соотношение сторон : 16:9
Частота кадров : 25,000 кадров/сек
Цветовое пространство : YUV
Субдискретизация насыщенности : 4:2:0
Битовая глубина : 8 бит
Тип развёртки : Прогрессивная
Метод сжатия : С потерями
Бит/(Пиксели*Кадры) : 0.278
Размер потока : 93,0 Мбайт (91%)
Библиотека кодирования : XviD 65

Аудио
Идентификатор : 1
Формат : AC-3
Формат/Информация : Audio Coding 3
Расширение режима : CM (complete main)
Параметр Endianness формата : Big
Идентификатор кодека : 2000
Продолжительность : 6 м. 29 с.
Вид битрейта : Постоянный
Битрейт : 192 Кбит/сек
Каналы : 2 канала
Расположение каналов : Front: L R
Частота : 48,0 КГц
Битовая глубина : 16 бит
Метод сжатия : С потерями
Размер потока : 8,93 Мбайт (9%)
Выравнивание : Разделение по промежуткам
Продолжительность промежутка : 40 мс. (1,00 видеокадр)
Время предзагрузки промежутка : 500 мс.






   Похожие торренты   Торрент   Размер 
В этой теме нет новых непрочитанных сообщений. Смешарики. Новые приключения (2013) DVDRip-AVC от Youtracker | лицензия

112 | 6

3.19 ГБ

В этой теме нет новых непрочитанных сообщений. Смешарики. Новые приключения. Выпуск 1 + Шуша (2012-2013) 2xDVD5 от Youtracker | Лицензия

0 | 19

5.97 ГБ

В этой теме нет новых непрочитанных сообщений. Смешарики. Новые приключения [01-40 из ?] + 6 бонусов (2013) DVDRip от New-Team | лицензия

86 | 22

6.63 ГБ

В этой теме нет новых непрочитанных сообщений. Смешарики. Новые приключения [01-40 из ?] + 6 бонусов (2013) DVDRip-AVC от New-Team | лицензия

68 | 15

6.61 ГБ

В этой теме нет новых непрочитанных сообщений. Смешарики. Новые приключения [01-51 из ?] + 6 бонусов (2012-2014) DVDRip-AVC от New-Team | лицензия

1120 | 205

8.36 ГБ

В этой теме нет новых непрочитанных сообщений. Смешарики. Новые приключения [01-45 из ?] + 6 бонусов (2012-2014) DVDRip-AVC от New-Team | лицензия

149 | 98

7.4 ГБ

В этой теме нет новых непрочитанных сообщений. Смешарики. Новые приключения [01-51 из ?] + 6 бонусов (2012-2014) DVDRip от New-Team | Лицензия

487 | 51

8.38 ГБ




Вы не можете начинать темы
Вы не можете отвечать на сообщения
Вы не можете редактировать свои сообщения
Вы не можете удалять свои сообщения
Вы не можете добавлять вложения

Перейти:  
Для Мосгорсуда, Роскомнадзора и рекламодателей: mosgorsud-torrent[собачка]yandex.ru
 Вход
ppkBB3cker v.2 © 2008-2014 @ PPK
[ Time : 0.052s | 14 Queries | GZIP : Off ]

Торрент трекер RUTOR.IN, Не можете зайти на rutor.org? Какой новый адрес рутор? Какое зеркало рутор? Не работает rutor.org и зеркала? Тогда наш торрент специально для вас. Rutor.in неофициальное зеркало rutor. В случае если у Вас заблокирован rutor или вдруг Вы не можете на него зайти, то Вы без труда сможете скачать бесплатно и без рекламы последние новинки кино, игр, сериалов и прочего у нас, на Rutor.in. Не нужно использовать прокси, чтобы зайти на рутор, достаточно воспользоваться нашим ресурсом. Все новые фильмы, игры, сериалы, книги и музыка за 2013 и 2014 годы через торрент бесплатно. Скачивайте фильмы в хорошем качестве, игры для пк, xbox, playstation без регистрации. У нас вы найдете новые Зарубежные сериалы и Русские сериалы 2013, 2014, 2015 годов. Оставайтесь с нами, качайте любимые фильмы, игры, сериалы, книги и музыку.