img image001 image001 image001 image001 image001 image001 image001 image001 image001 image001 image001 image001 image001 image001 image001

Planets Sun Sun Sun
Статистика раздачи
Автор: Снежана | Размер: 741.75 МБ | Добавлен: 12 авг 2013
Раздают: 22    Качают: 5
Скачать торрент
Скачать торрент
Описание торрента

СообщениеДобавлено: 12 авг 2013 

Астерикс и Клеопатра / Asterix et Cleopatre

#77
Страна: Франция, Бельгия
Жанр: комедия, приключения
Продолжительность: 01:09:15
Год выпуска: 1968
Перевод: Профессиональный (многоголосый закадровый)
Оригинальная аудиодорожка: нет
Русские субтитры: нет

Режиссёр: Рене Госинни / René Goscinny, Ли Пайан / Lee Payant

Роли озвучивали: Роже Карель, Жак Морель, Мишлин Дэкс, Жак Балютен, Рене Госинни, Анри Лабюсьер, Бернар Лавалетт, Серж Савьён, Пьер Трабо

Описание: Египетская царица Клеопатра была не только очень красива, но и столь же строптива. Ее страшно возмутили слова Цезаря, что египтяне навсегда останутся рабами, поскольку они — народ ленивый и глупый.

Царица решила утереть нос обнаглевшему императору. А помогут ей в этом друид Починикс с друзьями Астериксом и Обеликсом. Однажды они уже победили римские легионы. Что ждет их в Египте?



Качество: DVDRip
Формат: AVI
Видео кодек: XviD
Аудио кодек: MP3
Видео: 640x480 (1.33:1), 25 fps, XviD build 50 ~1359 kbps avg, 0.18 bit/pixel
Аудио: 48 kHz, MPEG Layer 3, 2 ch, ~128.00 kbps avg


Раздача от:


General
Complete name : D:Asterix_et_Cleopatre.DVDRip.745mb.by_dexter_lex.avi
Format : AVI
Format/Info : Audio Video Interleave
File size : 742 MiB
Duration : 1h 9mn
Overall bit rate : 1 498 Kbps
Writing application : VirtualDubMod 1.5.10.3 | www.virtualdub-fr.org || (build 2550/release)
Writing library : VirtualDubMod build 2550/release

Video
ID : 0
Format : MPEG-4 Visual
Format profile : Advanced Simple@L5
Format settings, BVOP : 1
Format settings, QPel : No
Format settings, GMC : No warppoints
Format settings, Matrix : Custom
Codec ID : XVID
Codec ID/Hint : XviD
Duration : 1h 9mn
Bit rate : 1 360 Kbps
Width : 640 pixels
Height : 480 pixels
Display aspect ratio : 4:3
Frame rate : 25.000 fps
Color space : YUV
Chroma subsampling : 4:2:0
Bit depth : 8 bits
Scan type : Progressive
Compression mode : Lossy
Bits/(Pixel*Frame) : 0.177
Stream size : 674 MiB (91%)
Writing library : XviD 1.2.1 (UTC 2008-12-04)

Audio
ID : 1
Format : MPEG Audio
Format version : Version 1
Format profile : Layer 3
Codec ID : 55
Codec ID/Hint : MP3
Duration : 1h 9mn
Bit rate mode : Constant
Bit rate : 128 Kbps
Channel(s) : 2 channels
Sampling rate : 48.0 KHz
Compression mode : Lossy
Stream size : 63.4 MiB (9%)
Alignment : Aligned on interleaves
Interleave, duration : 40 ms (1.00 video frame)
Interleave, preload duration : 504 ms
Writing library : LAME3.99r
Encoding settings : -m s -V 4 -q 2 -lowpass 17 -b 128




   Похожие торренты   Торрент   Размер 
В этой теме нет новых непрочитанных сообщений. Астерикс и Клеопатра / Asterix et Cleopatre / Asterix and Cleopatra (1968) DVDRip-AVC от Youtracker | P, A

20 | 11

1.51 ГБ

В этой теме нет новых непрочитанных сообщений. Астерикс и Клеопатра / Asterix et Cleopatre / Asterix and Cleopatra (1968) DVDRip от Torrent-Xzona | КПК | P

5 | 3

352.75 МБ

В этой теме нет новых непрочитанных сообщений. Астерикс и Клеопатра / Asterix et Cleopatre (1968) BDRip 720p | Remastered | P

37 | 18

5.33 ГБ

В этой теме нет новых непрочитанных сообщений. Астерикс и Клеопатра / Asterix et Cleopatre (1968) BDRip 1080p от NNNB | P, A

147 | 13

4.03 ГБ

В этой теме нет новых непрочитанных сообщений. Астерикс и Обеликс: Миссия Клеопатра / Astérix & Obélix: Mission Cléopâtre (2002) DVDRip-AVC

2 | 2

697.36 МБ

В этой теме нет новых непрочитанных сообщений. Астерикс и Обеликс: Миссия Клеопатра / Asterix & Obelix: Mission Cleopatra (2002) DVDRip

195 | 10

1.46 ГБ

В этой теме нет новых непрочитанных сообщений. OST - Астерикс и Обеликс: Миссия Клеопатра / Asterix & Obelix: Mission Cleopatre (2002) MP3

15 | 10

160.9 МБ




Вы не можете начинать темы
Вы не можете отвечать на сообщения
Вы не можете редактировать свои сообщения
Вы не можете удалять свои сообщения
Вы не можете добавлять вложения

Перейти:  
Для Мосгорсуда, Роскомнадзора и рекламодателей: mosgorsud-torrent[собачка]yandex.ru
 Вход
ppkBB3cker v.2 © 2008-2014 @ PPK
[ Time : 3.705s | 14 Queries | GZIP : Off ]

Торрент трекер RUTOR.IN, Не можете зайти на rutor.org? Какой новый адрес рутор? Какое зеркало рутор? Не работает rutor.org и зеркала? Тогда наш торрент специально для вас. Rutor.in неофициальное зеркало rutor. В случае если у Вас заблокирован rutor или вдруг Вы не можете на него зайти, то Вы без труда сможете скачать бесплатно и без рекламы последние новинки кино, игр, сериалов и прочего у нас, на Rutor.in. Не нужно использовать прокси, чтобы зайти на рутор, достаточно воспользоваться нашим ресурсом. Все новые фильмы, игры, сериалы, книги и музыка за 2013 и 2014 годы через торрент бесплатно. Скачивайте фильмы в хорошем качестве, игры для пк, xbox, playstation без регистрации. У нас вы найдете новые Зарубежные сериалы и Русские сериалы 2013, 2014, 2015 годов. Оставайтесь с нами, качайте любимые фильмы, игры, сериалы, книги и музыку.