img image001 image001 image001 image001 image001 image001 image001 image001 image001 image001 image001 image001 image001 image001 image001

Planets Sun Sun Sun
Статистика раздачи
Автор: Снежана | Размер: 1.53 ГБ | Добавлен: 12 авг 2013
Раздают: 1    Качают: 15
Скачать торрент
Скачать торрент
Описание торрента

СообщениеДобавлено: 12 авг 2013 

Красный Белый Черный Желтый / RWBY / Red White Black Yellow



Страна: США
Год выпуска: 2013 г.
Жанр: Боевые искусства, Боевик, Приключения
Тип: TV
Продолжительность: ~12 мин. серия
Режиссер: Monty Oum
Студия: Rooster Teeth

Описание: Юная Руби Роуз и не предполагала, что её столкновение с разыскиваемым бандитом Романом Торчвиком откроет ей дорогу в Бикон - престижную академию, которая обучает защитников мира - Охотников...
Новая работа Монти Оума - веб-аниматора, прославившегося на весь Интернет благодаря головокружительным роликам Haloid и Dead Fantasy!

Качество: WEB-DLRip
Тип релиза: Без хардсаба
Формат видео: MKV
Автор рипа/релиза: kick_ass69 / Студия Kansai
Видео: h264,1920x1080, 7 947 Kbps, 8bit, 29.970 fps.
Аудио: AAC, 320 kbps, 48Khz, 2ch Язык Русский (в составе контейнера) ; Озвучка: Профессиональная многоголосая, закадровая. Студия Kansai

Сэмпл: http://multi-up.com/887084

Код:
Общее
Полное имя                               : RWBY_S01E01.mp4
Формат                                   : MPEG-4
Профиль формата                          : Base Media
Идентификатор кодека                     : isom
Размер файла                             : 730 Мбайт
Продолжительность                        : 12 м.
Режим общего битрейта                    : Переменный
Общий поток                              : 8269 Кбит/сек
Дата кодирования                         : UTC 2013-07-21 16:50:30
Дата пометки                             : UTC 2013-07-21 16:50:30
Программа кодирования                    : Yamb 2.1.0.0 [http://yamb.unite-video.com]

Видео
Идентификатор                            : 1
Формат                                   : AVC
Формат/Информация                        : Advanced Video Codec
Профиль формата                          : High@L4.0
Параметр CABAC формата                   : Да
Параметр ReFrames формата                : 3 кадра
Параметр GOP формата                     : M=3, N=30
Идентификатор кодека                     : avc1
Идентификатор кодека/Информация          : Advanced Video Coding
Продолжительность                        : 12 м.
Битрейт                                  : 7947 Кбит/сек
Максимальный битрейт                     : 29,1 Мбит/сек
Ширина                                   : 1920 пикселей
Высота                                   : 1080 пикселей
Соотношение сторон                       : 16:9
Режим частоты кадров                     : Постоянный
Частота кадров                           : 29,970 кадров/сек
Стандарт вещания                         : NTSC
Цветовое пространство                    : YUV
Субдискретизация насыщенности            : 4:2:0
Битовая глубина                          : 8 бит
Тип развёртки                            : Прогрессивная
Бит/(Пиксели*Кадры)                      : 0.128
Размер потока                            : 701 Мбайт (96%)
Дата кодирования                         : UTC 2013-07-21 16:50:30
Дата пометки                             : UTC 2013-07-21 16:50:33
Основные цвета                           : BT.709
Характеристики трансфера                 : BT.709
Коэффициенты матрицы                     : BT.709

Аудио
Идентификатор                            : 2
Формат                                   : AAC
Формат/Информация                        : Advanced Audio Codec
Профиль формата                          : LC
Идентификатор кодека                     : 40
Продолжительность                        : 12 м.
Вид битрейта                             : Переменный
Битрейт                                  : 320 Кбит/сек
Максимальный битрейт                     : 328 Кбит/сек
Каналы                                   : 2 канала
Расположение каналов                     : Front: L R
Частота                                  : 48,0 КГц
Метод сжатия                             : С потерями
Размер потока                            : 28,2 Мбайт (4%)
Заголовок                                : Kansai
Язык                                     : Russian
Дата кодирования                         : UTC 2013-07-21 16:50:33
Дата пометки                             : UTC 2013-07-21 16:50:33



1.
2.
3.






   Похожие торренты   Торрент   Размер 
В этой теме нет новых непрочитанных сообщений. Красный Белый Черный Желтый / RWBY / Red White Black Yellow [TV] [S01x01 из 16] (2013) WEB-DLRip 1080p | L

7 | 2

729.84 МБ

В этой теме нет новых непрочитанных сообщений. Черный и Белый / Black & White [01-24 из 24] (2009) HDTVRip 720p от mi24

1 | 7

33.19 ГБ

В этой теме нет новых непрочитанных сообщений. Черный и белый: Начало / Black & White Episode I : Dawn of Assault (2012) BDRip-AVC | L1 | Unrated

9 | 4

2.48 ГБ

В этой теме нет новых непрочитанных сообщений. Черный и белый: Начало / Black & White Episode I : Dawn of Assault (2012) BDRip | L1 | Unrated

43 | 5

1.6 ГБ

В этой теме нет новых непрочитанных сообщений. Белый свет / Черный дождь: Разрушение Хиросимы и Нагасаки / White Light / Black Rain: The Destruction of Hiroshima and Nagasaki (2007) HDTVRip

107 | 21

1.46 ГБ

В этой теме нет новых непрочитанных сообщений. Черно-белый секс / Black & White & Sex (2012) WEB-DLRip | НТВ+

725 | 463

1.36 ГБ

В этой теме нет новых непрочитанных сообщений. Красный Белый и Синий / Red White & Blue (2010) HDRip

1 | 2

1.37 ГБ




Вы не можете начинать темы
Вы не можете отвечать на сообщения
Вы не можете редактировать свои сообщения
Вы не можете удалять свои сообщения
Вы не можете добавлять вложения

Перейти:  
Для Мосгорсуда, Роскомнадзора и рекламодателей: mosgorsud-torrent[собачка]yandex.ru
 Вход
ppkBB3cker v.2 © 2008-2014 @ PPK
[ Time : 0.047s | 14 Queries | GZIP : On ]

Торрент трекер RUTOR.IN, Не можете зайти на rutor.org? Какой новый адрес рутор? Какое зеркало рутор? Не работает rutor.org и зеркала? Тогда наш торрент специально для вас. Rutor.in неофициальное зеркало rutor. В случае если у Вас заблокирован rutor или вдруг Вы не можете на него зайти, то Вы без труда сможете скачать бесплатно и без рекламы последние новинки кино, игр, сериалов и прочего у нас, на Rutor.in. Не нужно использовать прокси, чтобы зайти на рутор, достаточно воспользоваться нашим ресурсом. Все новые фильмы, игры, сериалы, книги и музыка за 2013 и 2014 годы через торрент бесплатно. Скачивайте фильмы в хорошем качестве, игры для пк, xbox, playstation без регистрации. У нас вы найдете новые Зарубежные сериалы и Русские сериалы 2013, 2014, 2015 годов. Оставайтесь с нами, качайте любимые фильмы, игры, сериалы, книги и музыку.