img image001 image001 image001 image001 image001 image001 image001 image001 image001 image001 image001 image001 image001 image001 image001

Planets Sun Sun Sun
Статистика раздачи
Автор: Снежана | Размер: 3.5 ГБ | Добавлен: 12 авг 2013
Раздают: 0    Качают: 2
Скачать торрент
Скачать торрент
Описание торрента

СообщениеДобавлено: 12 авг 2013 

#77

Год выпуска: 2012
Страна: США
Жанр: мультфильм, фантастика, боевик, комедия, приключения, ...
Продолжительность: 00:23:37
Перевод: Профессиональный (дублированный){SDI MEDIA },Любительский (многоголосый закадровый){ZM-SHOW & Arasi Project}
Субтитры: есть английские и русские(ninjaturtles)

Режиссер: Juan Jose Meza-Leon, Алан Ван, Майкл Чанг
Сценарий: Джошуа Стернин, Джеффри Вентимилья, Кенни Байрли, ...
Продюсер: Джошуа Стернин, Питер Хатингс, МакГрегор Миддлтон, ...
Композитор: Себастьян Эванс

В ролях: Шон Эстин / Sean Astin (Raphael, озвучка), Джейсон Биггз / Jason Biggs (Leonardo, озвучка), Грег Сайпс / Greg Cipes (Michelangelo, озвучка), Роб Полсен / Rob Paulsen (Donatello, озвучка), Хун Ли / Hoon Lee (Splinter, озвучка), Мэй Уитман / Mae Whitman (April O'Neil, озвучка), Нолан Норт / Nolan North (Kraang #1, озвучка), Кевин Майкл Ричардсон / Kevin Michael Richardson (The Shredder, озвучка)




Качество: WEB-DLRip
Формат: AVI
Видео кодек: XviD
Аудио кодеk: AC3
Видео: 720x400 (16:9), 23.976 fps,XviD 65, 1 502 Kbps
Аудио: Аудио #1: AC3, 192 Kbps, 48.0 KHz, 2 ch RUS Dub
Аудио #2: AC3, 192 Kbps, 48.0 KHz, 2 ch RUS MVO
Аудио #3: AC3, 192 Kbps, 48.0 KHz, 2 ch ENG Original

Код:
General
Complete name                    : Teenage.Mutant.Ninja.Turtles.2012.S01E1.avi
Format                           : AVI
Format/Info                      : Audio Video Interleave
File size                        : 354 MiB
Duration                         : 23mn 37s
Overall bit rate                 : 2 097 Kbps
Writing application              : VirtualDubMod 1.5.10.3 | www.virtualdub-fr.org || (build 2550/release)
Writing library                  : VirtualDubMod build 2550/release

Video
ID                                       : 0
Format                                   : MPEG-4 Visual
Format profile                           : Advanced Simple@L5
Format settings, BVOP                    : 1
Format settings, QPel                    : No
Format settings, GMC                     : No warppoints
Format settings, Matrix                  : Default (H.263)
Codec ID                                 : DX50
Codec ID/Hint                            : DivX 5
Duration                                 : 23mn 37s
Bit rate                                 : 1 502 Kbps
Width                                    : 720 pixels
Height                                   : 400 pixels
Display aspect ratio                     : 16:9
Frame rate                               : 23.976 fps
Color space                              : YUV
Chroma subsampling                       : 4:2:0
Bit depth                                : 8 bits
Scan type                                : Progressive
Compression mode                         : Lossy
Bits/(Pixel*Frame)                       : 0.217
Stream size                              : 254 MiB (72%)
Writing library                          : XviD 65

Audio #1
ID                                       : 1
Format                                   : AC-3
Format/Info                              : Audio Coding 3
Mode extension                           : CM (complete main)
Format settings, Endianness              : Big
Codec ID                                 : 2000
Duration                                 : 23mn 37s
Bit rate mode                            : Constant
Bit rate                                 : 192 Kbps
Channel(s)                               : 2 channels
Channel positions                        : Front: L R
Sampling rate                            : 48.0 KHz
Bit depth                                : 16 bits
Compression mode                         : Lossy
Stream size                              : 32.4 MiB (9%)
Alignment                                : Split accross interleaves
Interleave, duration                     : 42 ms (1.00 video frame)
Interleave, preload duration             : 500 ms

Audio #2
ID                                       : 2
Format                                   : AC-3
Format/Info                              : Audio Coding 3
Mode extension                           : CM (complete main)
Format settings, Endianness              : Big
Codec ID                                 : 2000
Duration                                 : 23mn 37s
Bit rate mode                            : Constant
Bit rate                                 : 192 Kbps
Channel(s)                               : 2 channels
Channel positions                        : Front: L R
Sampling rate                            : 48.0 KHz
Bit depth                                : 16 bits
Compression mode                         : Lossy
Stream size                              : 32.4 MiB (9%)
Alignment                                : Split accross interleaves
Interleave, duration                     : 42 ms (1.00 video frame)
Interleave, preload duration             : 500 ms

Audio #3
ID                                       : 3
Format                                   : AC-3
Format/Info                              : Audio Coding 3
Mode extension                           : CM (complete main)
Format settings, Endianness              : Big
Codec ID                                 : 2000
Duration                                 : 23mn 37s
Bit rate mode                            : Constant
Bit rate                                 : 192 Kbps
Channel(s)                               : 2 channels
Channel positions                        : Front: L R
Sampling rate                            : 48.0 KHz
Bit depth                                : 16 bits
Compression mode                         : Lossy
Stream size                              : 32.4 MiB (9%)
Alignment                                : Split accross interleaves
Interleave, duration                     : 42 ms (1.00 video frame)
Interleave, preload duration             : 500 ms


Сезон 1
1.01 Черепашки Выходят на Поверхность, Часть 1/ Возрождение Черепашек, Часть 1 / Rise of the Turtles: Part 1 (29.09.2012)
1.02 Черепашки Выходят на Поверхность, Часть 2/ Возрождение Черепашек, Часть 2 / Rise of the Turtles: Part 2 (29.09.2012)
1.03 "Черепаший Нрав / Turtle Temper (06.10.2012)
1.04 Новый друг, старый враг / New Friend, Old Enemy (13.10.2012)
1.05 "Кажется его зовут Бакстер Стокман / Я думаю, его зовут Бакстер Стокман / I Think His Name Is Baxter Stockman (20.10.2012)
1.06 Металлическая голова / Жестиголовый / Metalhead (27.10.2012)
1.07 Генеральный план / Обезьяньи мозги / Monkey Brains (03.11.2012)
1.08 Никогда не говори Ксевер/Никогда не поминай Ксевера /Никогда Не Говори Кромсатель / Never Say Xever (10.11.2012)
1.09 Перчатка брошена /Полоса Препятствий /Перчатка /Рукавица/ The Gauntlet (17.11.2012)
1.10 Паника в канализации/Паника в коллекторе /Паника в коллекторах/Panic in the Sewers (24.11.2012)
1.11 Mousers Attack! (08.12.2012)
1.12 It Came from the Depths (15.12.2012)
1.13 Rat Trap (22.12.2012)
1.14 The Alien Agenda (29.12.2012)
1.15 Enemy of My Enemy (05.01.2013)



Автор рипа: Semak



   Похожие торренты   Торрент   Размер 
В этой теме нет новых непрочитанных сообщений. Черепашки-ниндзя / Черепашки Мутанты Ниндзя / Teenage Mutant Ninja Turtles [01-22 из 26] (2012) WEB-DLRip

51 | 9

4.2 ГБ

В этой теме нет новых непрочитанных сообщений. Черепашки-ниндзя / Черепашки Мутанты Ниндзя / Teenage Mutant Ninja Turtles [01-23 из 26] (2012) WEB-DLRip

140 | 7

4.39 ГБ

В этой теме нет новых непрочитанных сообщений. Черепашки-ниндзя / Черепашки Мутанты Ниндзя / Teenage Mutant Ninja Turtles [02x01-22] (2013-2014) WEB-DLRip

73 | 44

4.11 ГБ

В этой теме нет новых непрочитанных сообщений. Черепашки-ниндзя / Черепашки Мутанты Ниндзя / Teenage Mutant Ninja Turtles [03x01-08] (2014-2015) WEB-DLRip

381 | 35

1.6 ГБ

В этой теме нет новых непрочитанных сообщений. Черепашки-ниндзя / Черепашки Мутанты Ниндзя / Teenage Mutant Ninja Turtles [03x01-06] (2014-2015) WEB-DLRip

547 | 66

1.19 ГБ

В этой теме нет новых непрочитанных сообщений. Черепашки-ниндзя / Черепашки Мутанты Ниндзя / Teenage Mutant Ninja Turtles [02x01-24] (2013-2014) WEB-DLRip

309 | 53

4.49 ГБ

В этой теме нет новых непрочитанных сообщений. Черепашки-ниндзя / Черепашки Мутанты Ниндзя / Teenage Mutant Ninja Turtles [S02] (2013-2014) WEB-DLRip

189 | 63

4.87 ГБ




Вы не можете начинать темы
Вы не можете отвечать на сообщения
Вы не можете редактировать свои сообщения
Вы не можете удалять свои сообщения
Вы не можете добавлять вложения

Перейти:  
Для Мосгорсуда, Роскомнадзора и рекламодателей: mosgorsud-torrent[собачка]yandex.ru
 Вход
ppkBB3cker v.2 © 2008-2014 @ PPK
[ Time : 0.835s | 15 Queries | GZIP : Off ]

Торрент трекер RUTOR.IN, Не можете зайти на rutor.org? Какой новый адрес рутор? Какое зеркало рутор? Не работает rutor.org и зеркала? Тогда наш торрент специально для вас. Rutor.in неофициальное зеркало rutor. В случае если у Вас заблокирован rutor или вдруг Вы не можете на него зайти, то Вы без труда сможете скачать бесплатно и без рекламы последние новинки кино, игр, сериалов и прочего у нас, на Rutor.in. Не нужно использовать прокси, чтобы зайти на рутор, достаточно воспользоваться нашим ресурсом. Все новые фильмы, игры, сериалы, книги и музыка за 2013 и 2014 годы через торрент бесплатно. Скачивайте фильмы в хорошем качестве, игры для пк, xbox, playstation без регистрации. У нас вы найдете новые Зарубежные сериалы и Русские сериалы 2013, 2014, 2015 годов. Оставайтесь с нами, качайте любимые фильмы, игры, сериалы, книги и музыку.