img image001 image001 image001 image001 image001 image001 image001 image001 image001 image001 image001 image001 image001 image001 image001

Planets Sun Sun Sun
Статистика раздачи
Автор: Снежана | Размер: 171.33 МБ | Добавлен: 12 авг 2013
Раздают: 6    Качают: 2
Скачать торрент
Скачать торрент
Описание торрента

СообщениеДобавлено: 12 авг 2013 

Секретная служба Санты: Подарок на Рождество / Prep & Landing: Stocking Stuffer: Operation: Secret Santa


#77

Страна: США
Жанр: мультфильм, короткометражный, фэнтези, семейный
Продолжительность: 00:06:54
Год выпуска: 2010
Перевод: Профессиональный (полное дублирование)
Субтитры: Русские, English, English (SDH), French, Spanish, Portuguese
Оригинальная аудио дорожка: английская

Режиссёр: Кевин Дитерс / Kevin Deters, Стиви Вермерс / Stevie Wermers

Роли озвучивали: Сара Чок, Дэйв Фоли, Дерек Ричардсон, Уильям Морган Шеппард, Бетти Уайт
Роли дублировали: Ирина Киреева, Диомид Виноградов, Прохор Чеховской, Михаил Георгиу, Елена Соловьева

Описание: Эльфам Уэйну и Лэнни поручают достать шкатулку из комнаты Санты...



Качество: BDRip-AVC
Формат: MKV
Видео кодек: H264
Аудио кодек: AC3
Видео: 768x432 (16:9), 23.976 fps, H264, 2 641 Kbps, 0.332 bit/pixel
Аудио #1: AC3, 2 ch, 48 kHz, 192 kbps | Dub
Аудио #2: AC3, 6 ch, 48 kHz, 640 kbps | Original
Субтитры: Русские, English, English (SDH), French, Spanish, Portuguese
Формат субтитров: SoftSub (srt)


Раздача от:


D:Operation.Secret.Santa.2010.BDRp-AVC.by_dexter_lex.mkv
General
Unique ID : 171192698397228253083192186374816605761 (0x80CA83B065D8FC45B4B45B434F292641)
Complete name : D:Operation.Secret.Santa.2010.BDRp-AVC.by_dexter_lex.mkv
Format : Matroska
Format version : Version 4 / Version 2
File size : 171 MiB
Duration : 6mn 53s
Overall bit rate : 3 474 Kbps
Encoded date : UTC 2013-08-07 05:31:38
Writing application : mkvmerge v6.1.0 ('Old Devil') built on Mar 4 2013 09:10:42
Writing library : libebml v1.3.0 + libmatroska v1.4.0
Video #1
ID : 1
Format : AVC
Format/Info : Advanced Video Codec
Format profile : High@L4.1
Format settings, CABAC : Yes
Format settings, ReFrames : 11 frames
Codec ID : V_MPEG4/ISO/AVC
Duration : 6mn 53s
Bit rate : 2 641 Kbps
Width : 768 pixels
Height : 432 pixels
Display aspect ratio : 16:9
Frame rate : 23.976 fps
Color space : YUV
Chroma subsampling : 4:2:0
Bit depth : 8 bits
Scan type : Progressive
Bits/(Pixel*Frame) : 0.332
Stream size : 127 MiB (74%)
Writing library : x264 core 130 r2273 b3065e6
Encoding settings : cabac=1 / ref=11 / deblock=1:-2:-2 / analyse=0x3:0x113 / me=umh / subme=10 / psy=1 / psy_rd=1.00:0.15 / mixed_ref=1 / me_range=32 / chroma_me=1 / trellis=2 / 8x8dct=1 / cqm=0 / deadzone=21,11 / fast_pskip=0 / chroma_qp_offset=-3 / threads=6 / lookahead_threads=1 / sliced_threads=0 / nr=0 / decimate=1 / interlaced=0 / bluray_compat=0 / constrained_intra=0 / bframes=9 / b_pyramid=2 / b_adapt=2 / b_bias=0 / direct=3 / weightb=1 / open_gop=0 / weightp=2 / keyint=240 / keyint_min=23 / scenecut=40 / intra_refresh=0 / rc_lookahead=60 / rc=2pass / mbtree=1 / bitrate=2641 / ratetol=1.0 / qcomp=0.60 / qpmin=0 / qpmax=69 / qpstep=4 / cplxblur=20.0 / qblur=0.5 / ip_ratio=1.40 / aq=1:1.00
Default : Yes
Forced : No
Audio #2
ID : 2
Format : AC-3
Format/Info : Audio Coding 3
Mode extension : CM (complete main)
Codec ID : A_AC3
Duration : 6mn 53s
Bit rate mode : Constant
Bit rate : 192 Kbps
Channel(s) : 2 channels
Channel positions : Front: L R
Sampling rate : 48.0 KHz
Bit depth : 16 bits
Compression mode : Lossy
Stream size : 9.47 MiB (6%)
Title : Дубляж
Language : Russian
Default : Yes
Forced : No
Audio #3
ID : 3
Format : AC-3
Format/Info : Audio Coding 3
Mode extension : CM (complete main)
Codec ID : A_AC3
Duration : 6mn 53s
Bit rate mode : Constant
Bit rate : 640 Kbps
Channel(s) : 6 channels
Channel positions : Front: L C R, Side: L R, LFE
Sampling rate : 48.0 KHz
Bit depth : 16 bits
Compression mode : Lossy
Stream size : 31.6 MiB (18%)
Title : Original
Language : English
Default : No
Forced : No
Text #4
ID : 4
Format : UTF-8
Codec ID : S_TEXT/UTF8
Codec ID/Info : UTF-8 Plain Text
Title : SRT, Full
Language : Russian
Default : No
Forced : No
Text #5
ID : 5
Format : UTF-8
Codec ID : S_TEXT/UTF8
Codec ID/Info : UTF-8 Plain Text
Title : SRT, Full
Language : English
Default : No
Forced : No
Text #6
ID : 6
Format : UTF-8
Codec ID : S_TEXT/UTF8
Codec ID/Info : UTF-8 Plain Text
Title : SRT, (SDH)
Language : English
Default : No
Forced : No
Text #7
ID : 7
Format : UTF-8
Codec ID : S_TEXT/UTF8
Codec ID/Info : UTF-8 Plain Text
Title : SRT, Full
Language : French
Default : No
Forced : No
Text #8
ID : 8
Format : UTF-8
Codec ID : S_TEXT/UTF8
Codec ID/Info : UTF-8 Plain Text
Title : SRT, Full
Language : Spanish
Default : No
Forced : No
Text #9
ID : 9
Format : UTF-8
Codec ID : S_TEXT/UTF8
Codec ID/Info : UTF-8 Plain Text
Title : SRT, Full
Language : Portuguese
Default : No
Forced : No



   Похожие торренты   Торрент   Размер 
В этой теме нет новых непрочитанных сообщений. Секретная служба Санты: Подарок на Рождество / Prep & Landing Stocking Stuffer: Operation: Secret Santa (2010) BDRip от Youtracker

16 | 2

117.82 МБ

В этой теме нет новых непрочитанных сообщений. Секретная служба Санты: Подарок на Рождество / Prep & Landing: Stocking Stuffer: Operation: Secret Santa (2010) BDRip-AVC от SuperMin

18 | 10

108.06 МБ

В этой теме нет новых непрочитанных сообщений. Секретная служба Санты: Подарок на Рождество / Prep & Landing: Stocking Stuffer: Operation: Secret Santa (2010) BDRip 720p от Leonardo and Scarabey | Лицензия

57 | 6

163.58 МБ

В этой теме нет новых непрочитанных сообщений. Секретная служба Санты / Приготовление и начало / Prep & Landing (2009) BDRip-AVC от SuperMin

23 | 3

367.83 МБ

В этой теме нет новых непрочитанных сообщений. Секретная служба Санты / Prep And Landing (2009) DVDRip от Torrent-Xzona | D

2 | 4

266.93 МБ

В этой теме нет новых непрочитанных сообщений. Секретная служба Санты / Приготовление и начало / Prep & Landing (2009) BDRip 720p от Leonardo and Scarabey | Лицензия

32 | 4

690.33 МБ

В этой теме нет новых непрочитанных сообщений. Секретная служба Санты: Шалуны против Паинек / Prep & Landing: Naughty vs. Nice (2011) BDRip-AVC от SuperMin

26 | 9

338.81 МБ




Вы не можете начинать темы
Вы не можете отвечать на сообщения
Вы не можете редактировать свои сообщения
Вы не можете удалять свои сообщения
Вы не можете добавлять вложения

Перейти:  
Для Мосгорсуда, Роскомнадзора и рекламодателей: mosgorsud-torrent[собачка]yandex.ru
 Вход
ppkBB3cker v.2 © 2008-2014 @ PPK
[ Time : 0.026s | 14 Queries | GZIP : Off ]

Торрент трекер RUTOR.IN, Не можете зайти на rutor.org? Какой новый адрес рутор? Какое зеркало рутор? Не работает rutor.org и зеркала? Тогда наш торрент специально для вас. Rutor.in неофициальное зеркало rutor. В случае если у Вас заблокирован rutor или вдруг Вы не можете на него зайти, то Вы без труда сможете скачать бесплатно и без рекламы последние новинки кино, игр, сериалов и прочего у нас, на Rutor.in. Не нужно использовать прокси, чтобы зайти на рутор, достаточно воспользоваться нашим ресурсом. Все новые фильмы, игры, сериалы, книги и музыка за 2013 и 2014 годы через торрент бесплатно. Скачивайте фильмы в хорошем качестве, игры для пк, xbox, playstation без регистрации. У нас вы найдете новые Зарубежные сериалы и Русские сериалы 2013, 2014, 2015 годов. Оставайтесь с нами, качайте любимые фильмы, игры, сериалы, книги и музыку.