img image001 image001 image001 image001 image001 image001 image001 image001 image001 image001 image001 image001 image001 image001 image001

Planets Sun Sun Sun
Статистика раздачи
Автор: Снежана | Размер: 117.82 МБ | Добавлен: 12 авг 2013
Раздают: 16    Качают: 2
Скачать торрент
Скачать торрент
Описание торрента

СообщениеДобавлено: 12 авг 2013 

Секретная служба Санты: Подарок на Рождество / Prep & Landing: Stocking Stuffer: Operation: Secret Santa


#77

Страна: США
Жанр: мультфильм, короткометражный, фэнтези, семейный
Продолжительность: 00:06:54
Год выпуска: 2010
Перевод: Профессиональный (полное дублирование)
Субтитры: нет
Оригинальная аудио дорожка: нет

Режиссёр: Кевин Дитерс / Kevin Deters, Стиви Вермерс / Stevie Wermers

Роли озвучивали: Сара Чок, Дэйв Фоли, Дерек Ричардсон, Уильям Морган Шеппард, Бетти Уайт
Роли дублировали: Ирина Киреева, Диомид Виноградов, Прохор Чеховской, Михаил Георгиу, Елена Соловьева

Описание: Эльфам Уэйну и Лэнни поручают достать шкатулку из комнаты Санты...



Качество: BDRip
Формат: AVI
Видео кодек: XviD
Аудио кодек: AC3
Видео: 704x400 (1.76:1), 23.976 fps, XviD build 50 ~2187 kbps avg, 0.32 bit/pixel
Аудио: 48 kHz, AC3 Dolby Digital, 2/0 (L,R) ch, ~192 kbps


Раздача от:


D:Operation.Secret.Santa.2010.BDRp.by_dexter_lex.avi
General
Complete name : D:Operation.Secret.Santa.2010.BDRp.by_dexter_lex.avi
Format : AVI
Format/Info : Audio Video Interleave
File size : 118 MiB
Duration : 6mn 53s
Overall bit rate : 2 389 Kbps
Writing application : VirtualDubMod 1.5.10.3 | www.virtualdub-fr.org || (build 2550/release)
Writing library : VirtualDubMod build 2550/release
Video #0
ID : 0
Format : MPEG-4 Visual
Format profile : Advanced Simple@L5
Format settings, BVOP : 1
Format settings, QPel : No
Format settings, GMC : No warppoints
Format settings, Matrix : Custom
Codec ID : XVID
Codec ID/Hint : XviD
Duration : 6mn 53s
Bit rate : 2 187 Kbps
Width : 704 pixels
Height : 400 pixels
Display aspect ratio : 16:9
Frame rate : 23.976 fps
Color space : YUV
Chroma subsampling : 4:2:0
Bit depth : 8 bits
Scan type : Progressive
Compression mode : Lossy
Bits/(Pixel*Frame) : 0.324
Stream size : 108 MiB (92%)
Writing library : XviD 1.2.1 (UTC 2008-12-04)
Audio #1
ID : 1
Format : AC-3
Format/Info : Audio Coding 3
Mode extension : CM (complete main)
Codec ID : 2000
Duration : 6mn 53s
Bit rate mode : Constant
Bit rate : 192 Kbps
Channel(s) : 2 channels
Channel positions : Front: L R
Sampling rate : 48.0 KHz
Bit depth : 16 bits
Compression mode : Lossy
Stream size : 9.47 MiB (8%)
Alignment : Split accross interleaves
Interleave, duration : 42 ms (1.00 video frame)
Interleave, preload duration : 500 ms




   Похожие торренты   Торрент   Размер 
В этой теме нет новых непрочитанных сообщений. Секретная служба Санты: Подарок на Рождество / Prep & Landing Stocking Stuffer: Operation: Secret Santa (2010) BDRip-AVC от Youtracker

6 | 2

171.33 МБ

В этой теме нет новых непрочитанных сообщений. Секретная служба Санты: Подарок на Рождество / Prep & Landing: Stocking Stuffer: Operation: Secret Santa (2010) BDRip-AVC от SuperMin

18 | 10

108.06 МБ

В этой теме нет новых непрочитанных сообщений. Секретная служба Санты: Подарок на Рождество / Prep & Landing: Stocking Stuffer: Operation: Secret Santa (2010) BDRip 720p от Leonardo and Scarabey | Лицензия

57 | 6

163.58 МБ

В этой теме нет новых непрочитанных сообщений. Секретная служба Санты / Приготовление и начало / Prep & Landing (2009) BDRip-AVC от SuperMin

23 | 3

367.83 МБ

В этой теме нет новых непрочитанных сообщений. Секретная служба Санты / Prep And Landing (2009) DVDRip от Torrent-Xzona | D

2 | 4

266.93 МБ

В этой теме нет новых непрочитанных сообщений. Секретная служба Санты: Шалуны против Паинек / Prep & Landing: Naughty vs. Nice (2011) BDRip-AVC от SuperMin

26 | 9

338.81 МБ

В этой теме нет новых непрочитанных сообщений. Секретная служба Санты / Приготовление и начало / Prep & Landing (2009) BDRip 720p от Leonardo and Scarabey | Лицензия

32 | 4

690.33 МБ




Вы не можете начинать темы
Вы не можете отвечать на сообщения
Вы не можете редактировать свои сообщения
Вы не можете удалять свои сообщения
Вы не можете добавлять вложения

Перейти:  
Для Мосгорсуда, Роскомнадзора и рекламодателей: mosgorsud-torrent[собачка]yandex.ru
 Вход
ppkBB3cker v.2 © 2008-2014 @ PPK
[ Time : 0.560s | 14 Queries | GZIP : Off ]

Торрент трекер RUTOR.IN, Не можете зайти на rutor.org? Какой новый адрес рутор? Какое зеркало рутор? Не работает rutor.org и зеркала? Тогда наш торрент специально для вас. Rutor.in неофициальное зеркало rutor. В случае если у Вас заблокирован rutor или вдруг Вы не можете на него зайти, то Вы без труда сможете скачать бесплатно и без рекламы последние новинки кино, игр, сериалов и прочего у нас, на Rutor.in. Не нужно использовать прокси, чтобы зайти на рутор, достаточно воспользоваться нашим ресурсом. Все новые фильмы, игры, сериалы, книги и музыка за 2013 и 2014 годы через торрент бесплатно. Скачивайте фильмы в хорошем качестве, игры для пк, xbox, playstation без регистрации. У нас вы найдете новые Зарубежные сериалы и Русские сериалы 2013, 2014, 2015 годов. Оставайтесь с нами, качайте любимые фильмы, игры, сериалы, книги и музыку.