img image001 image001 image001 image001 image001 image001 image001 image001 image001 image001 image001 image001 image001 image001 image001

Planets Sun Sun Sun
Статистика раздачи
Автор: Снежана | Размер: 2.13 ГБ | Добавлен: 12 авг 2013
Раздают: 44    Качают: 3
Скачать торрент
Скачать торрент
Описание торрента

СообщениеДобавлено: 12 авг 2013 

Эпик / Epic




Страна: США
Жанр: мультфильм, фэнтези, приключения, семейный
Год выпуска: 2013
Продолжительность: 01:42:49
Перевод: Профессиональный (дублированный) [Цифровая лицензия iTunes]
Субтитры: английские
Оригинальная дорожка: английский
Главы: есть

Режиссер: Крис Уэдж / Chris Wedge
В ролях: Джейсон Судейкис, Стивен Тайлер, Аманда Сайфред, Питбулл, Бейонсе Ноулз, Джош Хатчерсон, Джуда Фридлендер, Колин Фаррелл, Азиз Ансари, Блейк Андерсон


Описание: После долгой разлуки юная Мэри Кэтрин возвращается в дом, где отшельником живет ее отец, безумный профессор Бомба. Однако тот совсем не обращает внимания на дочь и одержим лишь одной идеей — изучить скрытый от посторонних глаз таинственный лесной мир. Девушка отказывается верить, что под ногами человечества идет вечная борьба между армиями, воюющими на сторонах добра и зла. Чудесным образом Мэри Кэтрин уменьшается в размерах и знакомится с маленькими воинами. Теперь от нее зависит спасение не только волшебного лесного, но и реального человеческого мира…


Сэмпл


Качество видео: BDRip-AVC (энкод L)
Формат видео: MKV

Видео: AVC / High@L4.1 / 1144 x 476 / 2 149 Kbps / 2.40:1
Аудио:
Russian: 48 kHz, AC3 Dolby Digital, 3/2 (L,C,R,l,r) + LFE ch, ~384 kbps
English: 48 kHz, AC3 Dolby Digital, 3/2 (L,C,R,l,r) + LFE ch, ~448 kbps
Формат субтитров: softsub (SRT)

Раздача от





Epic 2012 1080p Blu-ray AVC DTS-HD MA 5.1-HDWinG

Общее
Уникальный идентификатор : 171470247531800774840392805147337813627 (0x80FFF7EAFB863F27839ABDEBB8E3EE7B)
Полное имя : D:25KadrEpic.2013.Bluray.x264.ac3.rus.eng.by.L.mkv
Формат : Matroska
Версия формата : Version 2
Размер файла : 2,06 Гбайт
Продолжительность : 1 ч. 42 м.
Общий поток : 2873 Кбит/сек
Название фильма : Эпик / Epic [2013 г.] | Рип от L | Unionpeer
Дата кодирования : UTC 2013-08-10 10:22:55
Программа кодирования : mkvmerge v3.2.0 ('Beginnings') built on Feb 12 2010 16:46:17
Библиотека кодирования : libebml v0.7.9 + libmatroska v0.8.1

Видео
Идентификатор : 1
Формат : AVC
Формат/Информация : Advanced Video Codec
Профиль формата : High@L4.1
Параметр CABAC формата : Да
Параметр ReFrames формата : 10 кадров
Идентификатор кодека : V_MPEG4/ISO/AVC
Продолжительность : 1 ч. 42 м.
Битрейт : 1984 Кбит/сек
Номинальный битрейт : 2149 Кбит/сек
Ширина : 1144 пикселя
Высота : 476 пикселей
Соотношение сторон : 2,40:1
Режим частоты кадров : Постоянный
Частота кадров : 23,976 кадра/сек
Цветовое пространство : YUV
Субдискретизация насыщенности : 4:2:0
Битовая глубина : 8 бит
Тип развёртки : Прогрессивная
Бит/(Пиксели*Кадры) : 0.152
Размер потока : 1,42 Гбайт (69%)
Библиотека кодирования : x264 core 133 r2334 a3ac64b
Настройки программы : cabac=1 / ref=10 / deblock=1:-2:-1 / analyse=0x3:0x133 / me=umh / subme=11 / psy=1 / psy_rd=1.05:0.10 / mixed_ref=1 / me_range=32 / chroma_me=1 / trellis=2 / 8x8dct=1 / cqm=0 / deadzone=21,11 / fast_pskip=0 / chroma_qp_offset=-4 / threads=6 / lookahead_threads=1 / sliced_threads=0 / nr=0 / decimate=1 / interlaced=0 / bluray_compat=0 / constrained_intra=0 / bframes=10 / b_pyramid=2 / b_adapt=2 / b_bias=0 / direct=3 / weightb=1 / open_gop=0 / weightp=2 / keyint=230 / keyint_min=21 / scenecut=40 / intra_refresh=0 / rc_lookahead=0 / rc=2pass / mbtree=0 / bitrate=2149 / ratetol=1.0 / qcomp=0.70 / qpmin=0 / qpmax=69 / qpstep=4 / cplxblur=20.0 / qblur=0.5 / vbv_maxrate=50000 / vbv_bufsize=62500 / nal_hrd=none / ip_ratio=1.35 / pb_ratio=1.25 / aq=2:0.90
Язык : Russian
Default : Нет
Forced : Нет

Аудио #1
Идентификатор : 2
Формат : AC-3
Формат/Информация : Audio Coding 3
Расширение режима : CM (complete main)
Параметр Endianness формата : Big
Идентификатор кодека : A_AC3
Продолжительность : 1 ч. 42 м.
Вид битрейта : Постоянный
Битрейт : 384 Кбит/сек
Каналы : 6 каналов
Расположение каналов : Front: L C R, Side: L R, LFE
Частота : 48,0 КГц
Битовая глубина : 16 бит
Метод сжатия : С потерями
Размер потока : 281 Мбайт (13%)
Заголовок : Дубляж
Язык : Russian
Default : Да
Forced : Нет

Аудио #2
Идентификатор : 3
Формат : AC-3
Формат/Информация : Audio Coding 3
Расширение режима : CM (complete main)
Параметр Endianness формата : Big
Идентификатор кодека : A_AC3
Продолжительность : 1 ч. 42 м.
Вид битрейта : Постоянный
Битрейт : 448 Кбит/сек
Каналы : 6 каналов
Расположение каналов : Front: L C R, Side: L R, LFE
Частота : 48,0 КГц
Битовая глубина : 16 бит
Метод сжатия : С потерями
Размер потока : 328 Мбайт (16%)
Заголовок : Оригинал
Язык : English
Default : Нет
Forced : Нет

Текст
Идентификатор : 4
Формат : UTF-8
Идентификатор кодека : S_TEXT/UTF8
Идентификатор кодека/Информация : UTF-8 Plain Text
Язык : English
Default : Нет
Forced : Нет

Меню
00:00:00.000 : en:00:00:00.000
00:04:48.205 : en:00:04:48.205
00:09:49.589 : en:00:09:49.589
00:13:05.535 : en:00:13:05.535
00:16:50.051 : en:00:16:50.051
00:20:36.193 : en:00:20:36.193
00:24:09.490 : en:00:24:09.490
00:28:17.237 : en:00:28:17.237
00:31:31.848 : en:00:31:31.848
00:34:06.586 : en:00:34:06.586
00:38:21.591 : en:00:38:21.591
00:43:17.428 : en:00:43:17.428
00:44:58.029 : en:00:44:58.029
00:47:04.739 : en:00:47:04.739
00:49:07.945 : en:00:49:07.945
00:52:40.699 : en:00:52:40.699
00:56:28.885 : en:00:56:28.885
00:59:52.214 : en:00:59:52.214
01:03:27.387 : en:01:03:27.387
01:07:48.940 : en:01:07:48.940
01:14:36.472 : en:01:14:36.472
01:18:24.950 : en:01:18:24.950
01:20:13.100 : en:01:20:13.100

---[Information] [10.08.2013 12:55:48] x264 [info]: frame I:1325 Avg QP:16.56 size: 70926 PSNR Mean Y:47.98 U:51.41 V:51.69 Avg:48.85 Global:48.12
---[Information] [10.08.2013 12:55:48] x264 [info]: frame P:35366 Avg QP:19.75 size: 21659 PSNR Mean Y:45.98 U:49.70 V:50.14 Avg:46.90 Global:45.88
---[Information] [10.08.2013 12:55:48] x264 [info]: frame B:110740 Avg QP:21.83 size: 7122 PSNR Mean Y:45.67 U:49.66 V:50.12 Avg:46.63 Global:45.53





   Похожие торренты   Торрент   Размер 
В этой теме нет новых непрочитанных сообщений. Эпик / Epic (2013) BDRip-AVC от L | iTunes Russia

19 | 4

1.46 ГБ

В этой теме нет новых непрочитанных сообщений. Эпик / Epic (2013) BDRip-AVC от ExKinoRay | iTunes Russia

41 | 5

2.26 ГБ

В этой теме нет новых непрочитанных сообщений. Эпик / Epic (2013) BDRip 1080p | iTunes Russia

53 | 7

6.57 ГБ

В этой теме нет новых непрочитанных сообщений. Эпик / Epic (2013) HDRip | iTunes Russia

27 | 4

1.38 ГБ

В этой теме нет новых непрочитанных сообщений. Эпик / Epic (2013) Blu-Ray 1080p | iTunes Russia

0 | 2

39.94 ГБ

В этой теме нет новых непрочитанных сообщений. Эпик / Epic (2013) HDRip | iTunes Russia

46 | 6

697.2 МБ

В этой теме нет новых непрочитанных сообщений. Эпик / Epic (2013) HDRip | iTunes Russia

165 | 22

2.05 ГБ




Вы не можете начинать темы
Вы не можете отвечать на сообщения
Вы не можете редактировать свои сообщения
Вы не можете удалять свои сообщения
Вы не можете добавлять вложения

Перейти:  
Для Мосгорсуда, Роскомнадзора и рекламодателей: mosgorsud-torrent[собачка]yandex.ru
 Вход
ppkBB3cker v.2 © 2008-2014 @ PPK
[ Time : 0.018s | 13 Queries | GZIP : Off ]
CGP output time : 0.016s | 5 Queries | GZIP : Off

Торрент трекер RUTOR.IN, Не можете зайти на rutor.org? Какой новый адрес рутор? Какое зеркало рутор? Не работает rutor.org и зеркала? Тогда наш торрент специально для вас. Rutor.in неофициальное зеркало rutor. В случае если у Вас заблокирован rutor или вдруг Вы не можете на него зайти, то Вы без труда сможете скачать бесплатно и без рекламы последние новинки кино, игр, сериалов и прочего у нас, на Rutor.in. Не нужно использовать прокси, чтобы зайти на рутор, достаточно воспользоваться нашим ресурсом. Все новые фильмы, игры, сериалы, книги и музыка за 2013 и 2014 годы через торрент бесплатно. Скачивайте фильмы в хорошем качестве, игры для пк, xbox, playstation без регистрации. У нас вы найдете новые Зарубежные сериалы и Русские сериалы 2013, 2014, 2015 годов. Оставайтесь с нами, качайте любимые фильмы, игры, сериалы, книги и музыку.