img image001 image001 image001 image001 image001 image001 image001 image001 image001 image001 image001 image001 image001 image001 image001

Planets Sun Sun Sun
Статистика раздачи
Автор: Снежана | Размер: 2.26 ГБ | Добавлен: 11 авг 2013
Раздают: 41    Качают: 5
Скачать торрент
Скачать торрент
Описание торрента

СообщениеДобавлено: 11 авг 2013 

#77

Информация о фильме

Название: Эпик
Оригинальное название: Epic
Год выпуска: 2013
Жанр: Мультфильм, фэнтези, приключения, семейный, полнометражный
Выпущено: США, 20th Century Fox Animation, Blue Sky Studios
Режиссер: Крис Уэдж
В ролях: Джош Хатчерсон, Аманда Сайфред, Колин Фаррелл, Джейсон Судейкис, Азиз Ансари, Бейонсе Ноулз, Джонни Ноксвилл, Джуда Фридлендер, Блейк Андерсон, Кристоф Вальц, Стивен Тайлер, Питбулл, Джейсон Харрис, Эмма Кинни

О фильме: Вы никогда не задумывались о том, что за порогом вашего дома, в самом обыкновенном саду, может кипеть настоящая жизнь со злодеями, храбрецами, тайнами и магией? Что злобная мерзкая паучиха творит козни всем обитателям зеленого королевства, чтобы ухоженный благоухающий сад превратился в сухой хворост да серую пыль?


Файл

Качество: BDRip (AVC)
Видео: MPEG-4 AVC, 2320 Кбит/с, 1024x426, 23.976 кадр/с
Аудио: Русский (AC3, 6 ch, 384 Кбит/с), английский (AC3, 6 ch, 448 Кбит/с)
Размер: 2.26 ГБ
Продолжительность: 01:42:29
Перевод: Дублированный (iTunes Russia)
Субтитры: Нет

Общее
Полное имя : C:Users-DownloadsEpik.2013.x264.BDRip.(AVC).ExKinoRay.mkv
Формат : Matroska
Размер файла : 2,26 Гбайт
Продолжительность : 1 ч. 42 м.
Общий поток : 3152 Кбит/сек
Название фильма : Эпик. 2013. Rip by: ollan
Дата кодирования : UTC 2013-08-10 21:57:05
Программа кодирования : mkvmerge v5.6.0 ('Kenya Kane') built on May 27 2012 16:44:04
Библиотека кодирования : libebml v1.2.3 + libmatroska v1.3.0

Видео
Идентификатор : 1
Формат : AVC
Формат/Информация : Advanced Video Codec
Профиль формата : High@L4.1
Параметр CABAC формата : Да
Параметр ReFrames формата : 9 кадров
Режим смешивания : Container profile=Unknown@4.1
Идентификатор кодека : V_MPEG4/ISO/AVC
Продолжительность : 1 ч. 42 м.
Битрейт : 2257 Кбит/сек
Номинальный битрейт : 2320 Кбит/сек
Ширина : 1024 пикселей
Высота : 426 пикселей
Соотношение сторон : 2,40:1
Частота кадров : 23,976 кадра/сек
Разрешение : 24 бит
Колориметрия : 4:2:0
Тип развёртки : Прогрессивная
Бит/(Пиксели*Кадры) : 0.216
Размер потока : 1,61 Гбайт (72%)
Библиотека кодирования : x264 core 125 r2200 999b753
Настройки программы : cabac=1 / ref=9 / deblock=1:-2:-2 / analyse=0x3:0x133 / me=umh / subme=11 / psy=1 / psy_rd=1.00:0.00 / mixed_ref=1 / me_range=32 / chroma_me=1 / trellis=2 / 8x8dct=1 / cqm=0 / deadzone=21,11 / fast_pskip=0 / chroma_qp_offset=-2 / threads=12 / lookahead_threads=2 / sliced_threads=0 / nr=0 / decimate=0 / interlaced=0 / bluray_compat=0 / constrained_intra=0 / bframes=9 / b_pyramid=2 / b_adapt=1 / b_bias=0 / direct=3 / weightb=1 / open_gop=0 / weightp=2 / keyint=240 / keyint_min=23 / scenecut=40 / intra_refresh=0 / rc_lookahead=80 / rc=2pass / mbtree=1 / bitrate=2320 / ratetol=1.0 / qcomp=0.60 / qpmin=0 / qpmax=69 / qpstep=4 / cplxblur=20.0 / qblur=0.5 / ip_ratio=1.40 / aq=1:1.00

Аудио #1
Идентификатор : 2
Формат : AC-3
Формат/Информация : Audio Coding 3
Идентификатор кодека : A_AC3
Продолжительность : 1 ч. 42 м.
Вид битрейта : Постоянный
Битрейт : 384 Кбит/сек
Каналы : 6 каналов
Расположение каналов : Front: L C R, Surround: L R, LFE
Частота : 48,0 КГц
Размер потока : 281 Мбайт (12%)
Заголовок : Дублированный (iTunes Russia)
Язык : Russian

Аудио #2
Идентификатор : 3
Формат : AC-3
Формат/Информация : Audio Coding 3
Идентификатор кодека : A_AC3
Продолжительность : 1 ч. 42 м.
Вид битрейта : Постоянный
Битрейт : 448 Кбит/сек
Каналы : 6 каналов
Расположение каналов : Front: L C R, Surround: L R, LFE
Частота : 48,0 КГц
Размер потока : 328 Мбайт (14%)





Релиз от: Rip by:



   Похожие торренты   Торрент   Размер 
В этой теме нет новых непрочитанных сообщений. Эпик / Epic (2013) BDRip-AVC от L | iTunes Russia

19 | 4

1.46 ГБ

В этой теме нет новых непрочитанных сообщений. Эпик / Epic (2013) BDRip-AVC от L | ITunes Russia

44 | 3

2.13 ГБ

В этой теме нет новых непрочитанных сообщений. Эпик / Epic (2013) BDRip 1080p | iTunes Russia

53 | 7

6.57 ГБ

В этой теме нет новых непрочитанных сообщений. Эпик / Epic (2013) HDRip | iTunes Russia

165 | 22

2.05 ГБ

В этой теме нет новых непрочитанных сообщений. Эпик / Epic (2013) HDRip | iTunes Russia

27 | 4

1.38 ГБ

В этой теме нет новых непрочитанных сообщений. Эпик / Epic (2013) HDRip | iTunes Russia

46 | 6

697.2 МБ

В этой теме нет новых непрочитанных сообщений. Эпик / Epic (2013) Blu-Ray 1080p | iTunes Russia

0 | 2

39.94 ГБ




Вы не можете начинать темы
Вы не можете отвечать на сообщения
Вы не можете редактировать свои сообщения
Вы не можете удалять свои сообщения
Вы не можете добавлять вложения

Перейти:  
Для Мосгорсуда, Роскомнадзора и рекламодателей: mosgorsud-torrent[собачка]yandex.ru
 Вход
ppkBB3cker v.2 © 2008-2014 @ PPK
[ Time : 0.042s | 15 Queries | GZIP : Off ]

Торрент трекер RUTOR.IN, Не можете зайти на rutor.org? Какой новый адрес рутор? Какое зеркало рутор? Не работает rutor.org и зеркала? Тогда наш торрент специально для вас. Rutor.in неофициальное зеркало rutor. В случае если у Вас заблокирован rutor или вдруг Вы не можете на него зайти, то Вы без труда сможете скачать бесплатно и без рекламы последние новинки кино, игр, сериалов и прочего у нас, на Rutor.in. Не нужно использовать прокси, чтобы зайти на рутор, достаточно воспользоваться нашим ресурсом. Все новые фильмы, игры, сериалы, книги и музыка за 2013 и 2014 годы через торрент бесплатно. Скачивайте фильмы в хорошем качестве, игры для пк, xbox, playstation без регистрации. У нас вы найдете новые Зарубежные сериалы и Русские сериалы 2013, 2014, 2015 годов. Оставайтесь с нами, качайте любимые фильмы, игры, сериалы, книги и музыку.
cron