img image001 image001 image001 image001 image001 image001 image001 image001 image001 image001 image001 image001 image001 image001 image001

Planets Sun Sun Sun
Статистика раздачи
Автор: PriZraK | Размер: 25.04 ГБ | Добавлен: 15 фев 2014
Раздают: 4    Качают: 5
Скачать торрент
Скачать торрент
Описание торрента

СообщениеДобавлено: 15 фев 2014 




Информация о фильме
Название: Геркулес
Оригинальное название: Hercules
Год выхода: 1997
Жанр: Мюзикл, фэнтези, комедия, приключения, семейный
Режиссер: Рон Клементс, Джон Маскер
В ролях: Тейт Донован, Джошуа Китон, Роджер Барт, Дэнни ДеВито, Джеймс Вудс, Сьюзэн Иган, Боб Голдтуэйт, Мэтт Фрюэр, Рип Торн, Саманта Эггар, Барбара Барри, Хэл Холбрук, Пол Шэйффер, Аманда Пламмер, Кэрол Шелли, Пэдди Эдвардс, Чарлтон Хестон, Патрик Пинни

О фильме:
Правитель подземного царства Аид сверг потомка богов с Олимпа, и теперь, чтобы вернуться на священную гору, Геркулес должен совершить подвиг и стать настоящим героем. Вместе с волшебным конем Пегасом он сражается с Титанами и чудовищами вечной тьмы.
Но самое серьезное испытание ждет героя в царстве теней, где Повелитель мрака спрятал его возлюбленную. Там, в вековой тишине подземелья, Геркулесу не помогут боги с далекого Олимпа, ведь только доброе сердце и настоящая любовь способны победить силы зла!

Страна: США / Walt Disney Feature Animation, Walt Disney Pictures
Продолжительность: 01:33:12
Перевод: Дублированный, профессиональный многоголосый, авторский

Файл
Качество: Blu-ray Remux 1080p
Видео: MPEG-4 AVC, 33067 Кбит/с, 1920x1080, 23.976 кадр/с
Аудио #1: Русский (АС3, 2 ch, 192 Кбит/с) / Дублированный (Нева-1)
Аудио #2: Русский (АС3, 6 ch, 384 Кбит/с) / Профессиональный многоголосый
Аудио #3: Русский (АС3, 6 ch, 384 Кбит/с) / Профессиональный многоголосый (НТВ)
Аудио #4: Русский (DTS, 6 ch, 755 Кбит/с) / Авторский одноголосый (П.Санаев)
Аудио #5: Русский (АС3, 2 ch, 192 Кбит/с) / Авторский одноголосый (Н.Антонов)
Аудио #6: Английский (DTS-HD MA, 6 ch, 4518 Кбит/с)
Субтитры: Русские, английские

Format : Matroska
Format version : Version 4 / Version 2
File size : 25.0 GiB
Duration : 1h 33mn
Overall bit rate : 38.5 Mbps
Movie name : -=MediaClub-Odessit=-
Encoded date : UTC 2013-10-24 16:55:12
Writing application : mkvmerge v6.2.0 ('Promised Land') built on Apr 28 2013 12:22:01
Writing library : libebml v1.3.0 + libmatroska v1.4.0

Video
ID : 1
Format : AVC
Format/Info : Advanced Video Codec
Format profile : High@L4.1
Format settings, CABAC : Yes
Format settings, ReFrames : 4 frames
Format settings, GOP : M=1, N=12
Codec ID : V_MPEG4/ISO/AVC
Duration : 1h 33mn
Bit rate mode : Variable
Bit rate : 33.1 Mbps
Maximum bit rate : 35.0 Mbps
Width : 1 920 pixels
Height : 1 080 pixels
Display aspect ratio : 16:9
Frame rate : 23.976 fps
Color space : YUV
Chroma subsampling : 4:2:0
Bit depth : 8 bits
Scan type : Progressive
Bits/(Pixel*Frame) : 0.665
Stream size : 21.5 GiB (86%)

Audio #1
ID : 2
Format : AC-3
Format/Info : Audio Coding 3
Mode extension : CM (complete main)
Codec ID : A_AC3
Duration : 1h 33mn
Bit rate mode : Constant
Bit rate : 192 Kbps
Channel(s) : 2 channels
Channel positions : Front: L R
Sampling rate : 48.0 KHz
Bit depth : 16 bits
Compression mode : Lossy
Stream size : 128 MiB (0%)
Title : Дублированный (Нева-1)
Language : Russian

Audio #2
ID : 3
Format : AC-3
Format/Info : Audio Coding 3
Mode extension : CM (complete main)
Codec ID : A_AC3
Duration : 1h 33mn
Bit rate mode : Constant
Bit rate : 384 Kbps
Channel(s) : 6 channels
Channel positions : Front: L C R, Side: L R, LFE
Sampling rate : 48.0 KHz
Bit depth : 16 bits
Compression mode : Lossy
Stream size : 256 MiB (1%)
Title : Профессиональный многоголосый
Language : Russian

Audio #3
ID : 4
Format : AC-3
Format/Info : Audio Coding 3
Mode extension : CM (complete main)
Codec ID : A_AC3
Duration : 1h 33mn
Bit rate mode : Constant
Bit rate : 384 Kbps
Channel(s) : 6 channels
Channel positions : Front: L C R, Side: L R, LFE
Sampling rate : 48.0 KHz
Bit depth : 16 bits
Compression mode : Lossy
Stream size : 256 MiB (1%)
Title : Профессиональный многоголосый (НТВ)
Language : Russian

Audio #4
ID : 5
Format : DTS
Format/Info : Digital Theater Systems
Codec ID : A_DTS
Duration : 1h 33mn
Bit rate mode : Constant
Bit rate : 755 Kbps
Channel(s) : 6 channels
Channel positions : Front: L C R, Side: L R, LFE
Sampling rate : 48.0 KHz
Bit depth : 24 bits
Compression mode : Lossy
Stream size : 503 MiB (2%)
Title : Авторский одноголосый (П.Санаев)
Language : Russian

Audio #5
ID : 6
Format : AC-3
Format/Info : Audio Coding 3
Mode extension : CM (complete main)
Codec ID : A_AC3
Duration : 1h 33mn
Bit rate mode : Constant
Bit rate : 192 Kbps
Channel(s) : 2 channels
Channel positions : Front: L R
Sampling rate : 48.0 KHz
Bit depth : 16 bits
Compression mode : Lossy
Stream size : 128 MiB (0%)
Title : Авторский одноголосый (Н.Антонов)
Language : Russian

Audio #6
ID : 7
Format : DTS
Format/Info : Digital Theater Systems
Format profile : MA / Core
Codec ID : A_DTS
Duration : 1h 33mn
Bit rate mode : Variable
Bit rate : 2 719 Kbps / 1 510 Kbps
Channel(s) : 6 channels
Channel positions : Front: L C R, Side: L R, LFE
Sampling rate : 48.0 KHz
Bit depth : 24 bits
Compression mode : Lossless / Lossy
Language : English

Text #1
ID : 8
Format : UTF-8
Codec ID : S_TEXT/UTF8
Codec ID/Info : UTF-8 Plain Text
Language : Russian

Text #2
ID : 9
Format : UTF-8
Codec ID : S_TEXT/UTF8
Codec ID/Info : UTF-8 Plain Text
Language : English

Menu
00:00:00.000 : :Chapter 01
00:00:32.824 : :Chapter 02
00:02:28.690 : :Chapter 03
00:05:16.566 : :Chapter 04
00:07:55.391 : :Chapter 05
00:10:59.617 : :Chapter 06
00:14:23.195 : :Chapter 07
00:18:28.649 : :Chapter 08
00:20:12.628 : :Chapter 09
00:21:01.468 : :Chapter 10
00:25:29.986 : :Chapter 11
00:28:21.324 : :Chapter 12
00:32:08.927 : :Chapter 13
00:35:20.743 : :Chapter 14
00:39:12.308 : :Chapter 15
00:44:26.246 : :Chapter 16
00:48:29.156 : :Chapter 17
00:51:32.547 : :Chapter 18
00:53:47.390 : :Chapter 19
00:55:20.650 : :Chapter 20
00:57:49.632 : :Chapter 21
01:01:18.341 : :Chapter 22
01:03:47.615 : :Chapter 23
01:07:44.977 : :Chapter 24
01:10:27.890 : :Chapter 25
01:15:17.513 : :Chapter 26
01:17:08.457 : :Chapter 27
01:19:13.331 : :Chapter 28
01:20:55.100 : :Chapter 29
01:23:44.477 : :Chapter 30
01:26:01.239 : :Chapter 31
01:27:03.176 : :Chapter 32
01:33:11.961 : :Chapter 33


• За исходный диск спасибо (BitHQ)

Личная благодарность: Товарищу Gilbert за синхронизацию звуковых дорожек и субтитров.
• Сохранены главы как на Blu-Ray



Релиз от:



   Похожие торренты   Торрент   Размер 
В этой теме нет новых непрочитанных сообщений. Геркулес / Hercules (1997) BDRip-AVC от MediaClub | D. P, A

18 | 3

2.63 ГБ

В этой теме нет новых непрочитанных сообщений. Геркулес / Hercules (1997) BDRip от MediaClub | D, P

280 | 19

1.45 ГБ

В этой теме нет новых непрочитанных сообщений. Геркулес / Hercules (1997) BDRip 720p от MediaClub | D. P, A

18 | 5

3.61 ГБ

В этой теме нет новых непрочитанных сообщений. Геркулес / Hercules (1997) BDRip 1080p от NNNB | D,P,A

85 | 11

5.75 ГБ

В этой теме нет новых непрочитанных сообщений. Геркулес / Hercules (1997) BDRip 1080p от Freeisland

96 | 18

4.37 ГБ

В этой теме нет новых непрочитанных сообщений. Геркулес / Hercules (1997) BDRip-HEVC 1080p от FREEISLAND

51 | 7

3.18 ГБ

В этой теме нет новых непрочитанных сообщений. Геркулес / Hercules (1997) DVDRip

29 | 4

744.17 МБ




Вы не можете начинать темы
Вы не можете отвечать на сообщения
Вы не можете редактировать свои сообщения
Вы не можете удалять свои сообщения
Вы не можете добавлять вложения

Перейти:  
Для Мосгорсуда, Роскомнадзора и рекламодателей: mosgorsud-torrent[собачка]yandex.ru
 Вход
ppkBB3cker v.2 © 2008-2014 @ PPK
[ Time : 1.004s | 16 Queries | GZIP : Off ]

Торрент трекер RUTOR.IN, Не можете зайти на rutor.org? Какой новый адрес рутор? Какое зеркало рутор? Не работает rutor.org и зеркала? Тогда наш торрент специально для вас. Rutor.in неофициальное зеркало rutor. В случае если у Вас заблокирован rutor или вдруг Вы не можете на него зайти, то Вы без труда сможете скачать бесплатно и без рекламы последние новинки кино, игр, сериалов и прочего у нас, на Rutor.in. Не нужно использовать прокси, чтобы зайти на рутор, достаточно воспользоваться нашим ресурсом. Все новые фильмы, игры, сериалы, книги и музыка за 2013 и 2014 годы через торрент бесплатно. Скачивайте фильмы в хорошем качестве, игры для пк, xbox, playstation без регистрации. У нас вы найдете новые Зарубежные сериалы и Русские сериалы 2013, 2014, 2015 годов. Оставайтесь с нами, качайте любимые фильмы, игры, сериалы, книги и музыку.