img image001 image001 image001 image001 image001 image001 image001 image001 image001 image001 image001 image001 image001 image001 image001

Planets Sun Sun Sun
Статистика раздачи
Автор: PriZraK | Размер: 4.37 ГБ | Добавлен: 15 фев 2014
Раздают: 96    Качают: 18
Скачать торрент
Скачать торрент
Описание торрента

СообщениеДобавлено: 15 фев 2014 


Геркулес

Hercules

«A Comedy of Epic Proportions»




Год выпуска: 1997
Страна: США
Жанр: мультфильм, мюзикл, фэнтези, комедия, приключения, семейный
Продолжительность: 01:33:12
Перевод: Профессиональный (дублированный)
Субтитры: Russian (UTF-8), English (UTF-8)

Режиссер: Рон Клементс, Джон Маскер
Сценарий: Рон Клементс, Джон Маскер, Дон МакИнери, ...
Продюсер: Рон Клементс, Элис Дьюи, Джон Маскер, ...
Композитор: Алан Менкен
Художник: Джералд Скарф, Энди Гэскилл, Кейт Берг
Монтаж: Том Финэн, Роберт В. Хедлэнд

В ролях: Тейт Донован / Tate Donovan (Hercules, озвучка), Джошуа Китон / Josh Keaton (Young Hercules, озвучка), Роджер Барт / Roger Bart (Young Hercules, исполнитель песни), Дэнни ДеВито / Danny DeVito (Philoctetes, озвучка), Джеймс Вудс / James Woods (Hades; Lord of the Underworld, озвучка), Сьюзэн Иган / Susan Egan (Meg, озвучка), Боб Голдтуэйт / Bob Goldthwait (Pain, озвучка), Мэтт Фрюэр / Matt Frewer (Panic, озвучка), Рип Торн / Rip Torn (Zeus, озвучка), Саманта Эггар / Samantha Eggar (Hera, Hercules' Mother, озвучка)

Описание: Аид — властитель загробного мира. Много лет назад он был фактически сослан своим старшим братом Зевсом в глубины Ада и теперь намерен наверстать упущенное, собрав армию монстров и захватив Олимп. Единственный, кто может помешать Аиду — сын Зевса, юный Геркулес, поэтому прислужники злодея похищают младенца и превращают его в простого смертного.Спустя много лет юноша узнает о своем происхождении и ставит целью вернуться домой, но для этого ему придется совершить немало подвигов и стать настоящим героем. Но, как выясняется, даже победы над силами зла недостаточно, чтобы вернуть божественное начало…


Бюджет: $85 000 000
Сборы в США: $99 112 101
Сборы в мире: + $153 600 000 = $252 712 101
Зрители: США 21.1 млн , Франция 4.36 млн , Германия 3.24 млн
Премьера (мир): 14 июня 1997, ...
Премьера (РФ): 2 июня 2001, «Каскад»
Релиз на DVD: 5 октября 2009, «ВС трейд»,
Релиз на Blu-Ray: 28 января 2014, «Уолт Дисней Компани СНГ»
Рейтинг MPAA: Нет возрастных ограничений



Качество: BDRip 1080р
Формат: MKV
Видео кодек: AVC
Аудио кодеk: AC3
Видео: 1920x1080 (16:9), 23.976 fps, AVC, 5 756 Kbps

Аудио #1: AC3, 192 Kbps, 48.0 KHz, 2 ch Дублированный (Нева-1)
Аудио #2: AC3, 384 Kbps, 48.0 KHz, 6 ch Многоголосый (закадровый) НТВ
Аудио #3: AC3, 384 Kbps, 48.0 KHz, 6 ch English




Отдельно на Яндекс диск:
1.AC3, 384 Kbps, 48.0 KHz, 6 ch Многоголосый (закадровый)
2.DTS, 755 Kbps, 48.0 KHz, 6 ch Авторский П.Санаев
3.AC3, 192 Kbps, 48.0 KHz, 2 ch Авторский Н.Антонов




Лог:
- x264: frame I:1083 Avg QP:13.84 size:194961
- x264: frame P:45987 Avg QP:18.46 size: 46803
- x264: frame B:87009 Avg QP:18.91 size: 19080

General
Complete name : Hercules .1997.BDRip.1080p.mkv
Format : Matroska
File size : 4.37 GiB
Duration : 1h 33mn
Overall bit rate : 6 719 Kbps
Encoded date : UTC 2013-10-26 07:42:23
Writing application : mkvmerge v6.5.0 ('Isn't she lovely') built on Oct 20 2013 12:50:05
Writing library : libebml v1.3.0 + libmatroska v1.4.1

Video
ID : 1
Format : AVC
Format/Info : Advanced Video Codec
Format profile : High@L4.1
Format settings, CABAC : Yes
Format settings, ReFrames : 4 frames
Muxing mode : Container profile=Unknown@4.1
Codec ID : V_MPEG4/ISO/AVC
Duration : 1h 33mn
Bit rate : 5 756 Kbps
Width : 1 920 pixels
Height : 1 080 pixels
Display aspect ratio : 16:9
Frame rate : 23.976 fps
Color space : YUV
Chroma subsampling : 4:2:0
Bit depth : 8 bits
Scan type : Progressive
Bits/(Pixel*Frame) : 0.116
Stream size : 3.66 GiB (84%)
Writing library : x264 core 138 r2358 9e941d1
Encoding settings : cabac=1 / ref=4 / deblock=1:-1:-1 / analyse=0x3:0x133 / me=umh / subme=11 / psy=1 / psy_rd=1.00:0.00 / mixed_ref=1 / me_range=32 / chroma_me=1 / trellis=2 / 8x8dct=1 / cqm=0 / deadzone=21,11 / fast_pskip=0 / chroma_qp_offset=-2 / threads=6 / lookahead_threads=1 / sliced_threads=0 / nr=0 / decimate=1 / interlaced=0 / bluray_compat=0 / constrained_intra=0 / bframes=8 / b_pyramid=2 / b_adapt=2 / b_bias=0 / direct=3 / weightb=1 / open_gop=0 / weightp=2 / keyint=240 / keyint_min=24 / scenecut=40 / intra_refresh=0 / rc_lookahead=50 / rc=2pass / mbtree=1 / bitrate=5756 / ratetol=2.0 / qcomp=0.80 / qpmin=0 / qpmax=51 / qpstep=4 / cplxblur=20.0 / qblur=0.5 / vbv_maxrate=50000 / vbv_bufsize=62500 / nal_hrd=none / ip_ratio=1.40 / aq=1:0.80
Color primaries : BT.709-5, BT.1361, IEC 61966-2-4, SMPTE RP177
Transfer characteristics : BT.709-5, BT.1361
Matrix coefficients : BT.709-5, BT.1361, IEC 61966-2-4 709, SMPTE RP177

Audio #1
ID : 2
Format : AC-3
Format/Info : Audio Coding 3
Mode extension : CM (complete main)
Codec ID : A_AC3
Duration : 1h 33mn
Bit rate mode : Constant
Bit rate : 192 Kbps
Channel(s) : 2 channels
Channel positions : Front: L R
Sampling rate : 48.0 KHz
Bit depth : 16 bits
Stream size : 128 MiB (3%)
Title : Дубляж Нева-1
Language : Russian

Audio #2
ID : 3
Format : AC-3
Format/Info : Audio Coding 3
Mode extension : CM (complete main)
Codec ID : A_AC3
Duration : 1h 33mn
Bit rate mode : Constant
Bit rate : 384 Kbps
Channel(s) : 6 channels
Channel positions : Front: L C R, Side: L R, LFE
Sampling rate : 48.0 KHz
Bit depth : 16 bits
Stream size : 256 MiB (6%)
Title : MVO - HTB
Language : Russian

Audio #3
ID : 4
Format : AC-3
Format/Info : Audio Coding 3
Mode extension : CM (complete main)
Codec ID : A_AC3
Duration : 1h 33mn
Bit rate mode : Constant
Bit rate : 384 Kbps
Channel(s) : 6 channels
Channel positions : Front: L C R, Side: L R, LFE
Sampling rate : 48.0 KHz
Bit depth : 16 bits
Stream size : 256 MiB (6%)
Language : English

Text #1
ID : 5
Format : UTF-8
Codec ID : S_TEXT/UTF8
Codec ID/Info : UTF-8 Plain Text
Language : Russian

Text #2
ID : 6
Format : UTF-8
Codec ID : S_TEXT/UTF8
Codec ID/Info : UTF-8 Plain Text
Language : English

Menu
00:00:00.000 : :Chapter 01
00:00:32.824 : :Chapter 02
00:02:28.690 : :Chapter 03
00:05:16.566 : :Chapter 04
00:07:55.391 : :Chapter 05
00:10:59.617 : :Chapter 06
00:14:23.195 : :Chapter 07
00:18:28.649 : :Chapter 08
00:20:12.628 : :Chapter 09
00:21:01.468 : :Chapter 10
00:25:29.986 : :Chapter 11
00:28:21.324 : :Chapter 12
00:32:08.927 : :Chapter 13
00:35:20.743 : :Chapter 14
00:39:12.308 : :Chapter 15
00:44:26.246 : :Chapter 16
00:48:29.156 : :Chapter 17
00:51:32.547 : :Chapter 18
00:53:47.390 : :Chapter 19
00:55:20.650 : :Chapter 20
00:57:49.632 : :Chapter 21
01:01:18.341 : :Chapter 22
01:03:47.615 : :Chapter 23
01:07:44.977 : :Chapter 24
01:10:27.890 : :Chapter 25
01:15:17.513 : :Chapter 26
01:17:08.457 : :Chapter 27
01:19:13.331 : :Chapter 28
01:20:55.100 : :Chapter 29
01:23:44.477 : :Chapter 30
01:26:01.239 : :Chapter 31
01:27:03.176 : :Chapter 32
01:33:11.961 : :Chapter 33


· В начале, Гермес говорит, что Орфей сделал оформление для букета. Однако, Орфей был современником Геракла.

· Рикки Мартин озвучивал взрослого Геркулеса в мексикано-испанской версии фильма.

· Фраза Фила после спасения Мэг от Кентавра «Next time, don`t let your guard down because of a pair of big goo-goo eyes», в оригинале звучала так: «Next time, don`t let your guard down because of a pair of big, blue eyes». Однако когда сцена была в цвете, выяснилось, что глаза Мэг пурпурные.

· В начале картины, можно заметить Нарцисса в качестве бога. Однако, на самом деле, он был простым смертным.

· Аид, выступающий в роли злодея, более напоминает христианского дьявола, чем Греческого бога подземного мира, который, на самом деле, не причинял никому зла, правя загробным миром. По фильму, это темпераментно-горячий, импульсивный делец, ненавидящий свою работу и мечтающий сбросить Зевса и его окружение с Олимпа. Изначально, Аид задумывался медлительным и угрожающим, но Джеймс Вудс, озвучивающий его, сделал всё на свой лад.

· Геркулес не является сыном Зевса и Геры. В Мифологии, он сын Зевса и смертной женщины. За это Гера разгневалась и наслала на Геракла множество испытаний, чтобы погубить его. Однако, оригинальная идея мало подходила для картины. В мультфильме, он является сыном Зевса и Геры. Алкмена и её муж, Амфитрион появляются в Диснеевской версии в качестве приёмных родителей.

· Когда Геркулес входит в дом Фила, он ударяется головой о мачту Арго. Фил просит его быть поосторожнее. В мифологии, мачта Арго убила Ясона.

· Во время сцены позирования Геркулеса художнику на нем надета львиная шкура. Когда Геркулес сбрасывает ее, видно, что у льва шрам над левым глазом. Совсем как у Шрама в Короле-Льве.




Релиз группы:



   Похожие торренты   Торрент   Размер 
В этой теме нет новых непрочитанных сообщений. Геркулес / Hercules (1997) BDRip-HEVC 1080p от FREEISLAND

51 | 7

3.18 ГБ

В этой теме нет новых непрочитанных сообщений. Геркулес / Hercules (1997) BDRip 1080p от NNNB | D,P,A

85 | 11

5.75 ГБ

В этой теме нет новых непрочитанных сообщений. Геркулес / Hercules (1997) Blu-ray Remux 1080p от MediaClub | D. P, A

4 | 5

25.04 ГБ

В этой теме нет новых непрочитанных сообщений. Геркулес / Hercules (1997) BDRip от HQCLUB

365 | 22

1.45 ГБ

В этой теме нет новых непрочитанных сообщений. Геркулес / Hercules (1997) BDRip-AVC от New-Team | D

124 | 16

745.45 МБ

В этой теме нет новых непрочитанных сообщений. Геркулес / Hercules (1997) BDRip-AVC от MediaClub | D. P, A

18 | 3

2.63 ГБ

В этой теме нет новых непрочитанных сообщений. Геркулес / Hercules (1997) BDRip от MediaClub | D, P

280 | 19

1.45 ГБ




Вы не можете начинать темы
Вы не можете отвечать на сообщения
Вы не можете редактировать свои сообщения
Вы не можете удалять свои сообщения
Вы не можете добавлять вложения

Перейти:  
Для Мосгорсуда, Роскомнадзора и рекламодателей: mosgorsud-torrent[собачка]yandex.ru
 Вход
ppkBB3cker v.2 © 2008-2014 @ PPK
[ Time : 0.070s | 15 Queries | GZIP : Off ]
CGP output time : 0.250s | 5 Queries | GZIP : Off

Торрент трекер RUTOR.IN, Не можете зайти на rutor.org? Какой новый адрес рутор? Какое зеркало рутор? Не работает rutor.org и зеркала? Тогда наш торрент специально для вас. Rutor.in неофициальное зеркало rutor. В случае если у Вас заблокирован rutor или вдруг Вы не можете на него зайти, то Вы без труда сможете скачать бесплатно и без рекламы последние новинки кино, игр, сериалов и прочего у нас, на Rutor.in. Не нужно использовать прокси, чтобы зайти на рутор, достаточно воспользоваться нашим ресурсом. Все новые фильмы, игры, сериалы, книги и музыка за 2013 и 2014 годы через торрент бесплатно. Скачивайте фильмы в хорошем качестве, игры для пк, xbox, playstation без регистрации. У нас вы найдете новые Зарубежные сериалы и Русские сериалы 2013, 2014, 2015 годов. Оставайтесь с нами, качайте любимые фильмы, игры, сериалы, книги и музыку.