img image001 image001 image001 image001 image001 image001 image001 image001 image001 image001 image001 image001 image001 image001 image001

Planets Sun Sun Sun
Статистика раздачи
Автор: PriZraK | Размер: 209.64 МБ | Добавлен: 15 фев 2014
Раздают: 121    Качают: 4
Скачать торрент
Скачать торрент
Описание торрента

СообщениеДобавлено: 15 фев 2014 




Год выпуска: 2013
Жанр: Короткометражка, Мультипликация
Страна: США pic
Режиссер: Пьер Коффин, Крис Рено

Сюжет фильма:
Жёлтые коротышки, служат армией и помощниками для Грю. Хотя и понимают человеческую речь, говорить по-человечески не умеют, но могут произносить отдельные слова, но чаще они общаются на своём языке между собой. Глуповатые, но очень полезные. Интересно, что у некоторых миньонов только один глаз. Замечательное дополнение к известному мультфильму "Гадкия я 2".

Качество видео: BDRip

& Печаль'ka

Продолжительность: 00:04:14
Формат: avi
Видео: XviD, 720x400, 1701 kbps
Аудио: английский, не требуется, AC3 5.1, 384 kbps
General
Complete name : D:VideoMinions.Mini-Movies.2013.BDrip.XviD.ac3.by.HQ.Underverse1.Panic in the Mailroom.BDRip.Xvid.AC3.HQ.Underverse.avi
Format : AVI
Format/Info : Audio Video Interleave
File size : 63.5 MiB
Duration : 4mn 14s
Overall bit rate : 2 095 Kbps
Writing application : VirtualDubMod 1.5.10.2 (build 2540/release)
Writing library : VirtualDubMod build 2540/release

Video
ID : 0
Format : MPEG-4 Visual
Format profile : Streaming Video@L1
Format settings, BVOP : Yes
Format settings, QPel : No
Format settings, GMC : No warppoints
Format settings, Matrix : Custom
Muxing mode : Packed bitstream
Codec ID : XVID
Codec ID/Hint : XviD
Duration : 4mn 14s
Bit rate : 1 701 Kbps
Width : 720 pixels
Height : 400 pixels
Display aspect ratio : 16/9
Frame rate : 23.976 fps
Resolution : 24 bits
Colorimetry : 4:2:0
Scan type : Progressive
Bits/(Pixel*Frame) : 0.246
Stream size : 51.6 MiB (81%)
Writing library : XviD 64

Audio
ID : 1
Format : AC-3
Format/Info : Audio Coding 3
Codec ID : 2000
Duration : 4mn 14s
Bit rate mode : Constant
Bit rate : 384 Kbps
Channel(s) : 6 channels
Channel positions : Front: L C R, Surround: L R, LFE
Sampling rate : 48.0 KHz
Stream size : 11.6 MiB (18%)
Alignment : Split accross interleaves
Interleave, duration : 42 ms (1.00 video frame)
Interleave, preload duration : 500 ms
Продолжительность: 00:04:33
Формат: avi
Видео: XviD, 720x400, 1507 kbps
Аудио: английский, не требуется, AC3 5.1, 384 kbps

General
Complete name : D:VideoMinions.Mini-Movies.2013.BDrip.XviD.ac3.by.HQ.Underverse2.Puppy.BDRip.Xvid.AC3.HQ.Underverse.avi
Format : AVI
Format/Info : Audio Video Interleave
File size : 62.0 MiB
Duration : 4mn 33s
Overall bit rate : 1 901 Kbps
Writing application : VirtualDubMod 1.5.10.2 (build 2540/release)
Writing library : VirtualDubMod build 2540/release

Video
ID : 0
Format : MPEG-4 Visual
Format profile : Streaming Video@L1
Format settings, BVOP : Yes
Format settings, QPel : No
Format settings, GMC : No warppoints
Format settings, Matrix : Custom
Muxing mode : Packed bitstream
Codec ID : XVID
Codec ID/Hint : XviD
Duration : 4mn 33s
Bit rate : 1 507 Kbps
Width : 720 pixels
Height : 400 pixels
Display aspect ratio : 16/9
Frame rate : 23.976 fps
Resolution : 24 bits
Colorimetry : 4:2:0
Scan type : Progressive
Bits/(Pixel*Frame) : 0.218
Stream size : 49.2 MiB (79%)
Writing library : XviD 64

Audio
ID : 1
Format : AC-3
Format/Info : Audio Coding 3
Codec ID : 2000
Duration : 4mn 33s
Bit rate mode : Constant
Bit rate : 384 Kbps
Channel(s) : 6 channels
Channel positions : Front: L C R, Surround: L R, LFE
Sampling rate : 48.0 KHz
Stream size : 12.5 MiB (20%)
Alignment : Split accross interleaves
Interleave, duration : 42 ms (1.00 video frame)
Interleave, preload duration : 500 ms
Продолжительность: 00:04:12
Формат: avi
Видео: XviD, 720x400, 2398 kbps
Аудио: английский, оригинал, AC3 5.1, 384 kbps
Субтитры: внешние, SRT, русский

General
Complete name : D:VideoMinions.Mini-Movies.2013.BDrip.XviD.ac3.by.HQ.Underverse3.Training Wheels.BDRip.Xvid.AC3.HQ.Underverse.avi
Format : AVI
Format/Info : Audio Video Interleave
File size : 84.1 MiB
Duration : 4mn 12s
Overall bit rate : 2 792 Kbps
Writing application : VirtualDubMod 1.5.10.2 (build 2540/release)
Writing library : VirtualDubMod build 2540/release

Video
ID : 0
Format : MPEG-4 Visual
Format profile : Streaming Video@L1
Format settings, BVOP : Yes
Format settings, QPel : No
Format settings, GMC : No warppoints
Format settings, Matrix : Custom
Muxing mode : Packed bitstream
Codec ID : XVID
Codec ID/Hint : XviD
Duration : 4mn 12s
Bit rate : 2 398 Kbps
Width : 720 pixels
Height : 400 pixels
Display aspect ratio : 16/9
Frame rate : 23.976 fps
Resolution : 24 bits
Colorimetry : 4:2:0
Scan type : Progressive
Bits/(Pixel*Frame) : 0.347
Stream size : 72.2 MiB (86%)
Writing library : XviD 64

Audio
ID : 1
Format : AC-3
Format/Info : Audio Coding 3
Codec ID : 2000
Duration : 4mn 12s
Bit rate mode : Constant
Bit rate : 384 Kbps
Channel(s) : 6 channels
Channel positions : Front: L C R, Surround: L R, LFE
Sampling rate : 48.0 KHz
Stream size : 11.6 MiB (14%)
Alignment : Split accross interleaves
Interleave, duration : 42 ms (1.00 video frame)
Interleave, preload duration : 500 ms








Рип, уже существующей раздачи (развернуто на fullHD)



Мой рип (развернуто на fullHD)



Рип, уже существующей раздачи (оригинальный скрин)



Мой рип (оригинальный скрин)




   Похожие торренты   Торрент   Размер 
В этой теме нет новых непрочитанных сообщений. Гадкий Я 2: Мини-фильмы. Миньоны / Despicable Me 2: Mini-Movies. Minions (2013) BDRip

184 | 12

214.94 МБ

В этой теме нет новых непрочитанных сообщений. Гадкий Я 2: Мини-фильмы. Миньоны / Despicable Me 2: Mini-Movies. Minions (2013) BDRip-AVC от leonardo 59 & Scarabey

228 | 8

186.42 МБ

В этой теме нет новых непрочитанных сообщений. Гадкий Я 2: Мини-фильмы. Миньоны / Despicable Me 2: Mini-Movies. Minions (2013) BDRip 720p от leonardo 59 & Scarabey

227 | 10

384.51 МБ

В этой теме нет новых непрочитанных сообщений. Гадкий я 2 + Мини-фильмы. Миньоны / Despicable Me 2 + Mini-Movies. Minions (2013) BDRip 1080p [Hi10P] от FREEISLAND

757 | 98

4.91 ГБ

В этой теме нет новых непрочитанных сообщений. Гадкий Я: Мини-фильмы. Миньоны / Despicable Me Presents: Minions Mini-Movies; Minion Madness [01-06] (2010-2013) DVDRip от HitWay

1683 | 71

341 МБ

В этой теме нет новых непрочитанных сообщений. Гадкий Я: Мини-фильмы / Despicable Me: Mini-Movies (2010) BDRip от HQCLUB

193 | 28

241.01 МБ

В этой теме нет новых непрочитанных сообщений. Гадкий Я: Мини-фильмы / Despicable Me: Mini-Movies (2010) BDRip-AVC от leonardo 59 & Scarabey

287 | 6

172.85 МБ




Вы не можете начинать темы
Вы не можете отвечать на сообщения
Вы не можете редактировать свои сообщения
Вы не можете удалять свои сообщения
Вы не можете добавлять вложения

Перейти:  
Для Мосгорсуда, Роскомнадзора и рекламодателей: mosgorsud-torrent[собачка]yandex.ru
 Вход
ppkBB3cker v.2 © 2008-2014 @ PPK
[ Time : 8.341s | 14 Queries | GZIP : Off ]

Торрент трекер RUTOR.IN, Не можете зайти на rutor.org? Какой новый адрес рутор? Какое зеркало рутор? Не работает rutor.org и зеркала? Тогда наш торрент специально для вас. Rutor.in неофициальное зеркало rutor. В случае если у Вас заблокирован rutor или вдруг Вы не можете на него зайти, то Вы без труда сможете скачать бесплатно и без рекламы последние новинки кино, игр, сериалов и прочего у нас, на Rutor.in. Не нужно использовать прокси, чтобы зайти на рутор, достаточно воспользоваться нашим ресурсом. Все новые фильмы, игры, сериалы, книги и музыка за 2013 и 2014 годы через торрент бесплатно. Скачивайте фильмы в хорошем качестве, игры для пк, xbox, playstation без регистрации. У нас вы найдете новые Зарубежные сериалы и Русские сериалы 2013, 2014, 2015 годов. Оставайтесь с нами, качайте любимые фильмы, игры, сериалы, книги и музыку.