img image001 image001 image001 image001 image001 image001 image001 image001 image001 image001 image001 image001 image001 image001 image001

Planets Sun Sun Sun
Статистика раздачи
Автор: PriZraK | Размер: 4.91 ГБ | Добавлен: 15 фев 2014
Раздают: 757    Качают: 98
Скачать торрент
Скачать торрент
Описание торрента

СообщениеДобавлено: 15 фев 2014 


Гадкий я 2 + Мини-фильмы. Миньоны
Despicable Me 2 + Mini-Movies. Minions
(2013)
BDRip 1080p [Hi10P] от FREEISLAND


«More minions. More despicable»




Год выпуска: 2013
Страна: США
Жанр: мультфильм, фантастика, комедия, криминал, приключения, семейный
Продолжительность:1 ч. 37 м. 58 с.
Перевод: Дублированный - Пифагор (2013г.)

Режиссер: Пьер Соффин, Крис Рено
Продюссер: Джанет Хили, Кристофер Меледандри, Роберт Тейлор
Сценарий: Синко Пол, Кен Даурио
Композитор: Эйтор Перейра
Студия: Universal Pictures, Illumination Entertainment

Бюджет: $76 000 000
Релиз на DVD: 31 октября 2013, «Двадцатый Век Фокс СНГ»
Релиз на Blu-Ray: 31 октября 2013, «Двадцатый Век Фокс СНГ»
Премьера в мире: 16 июня 2013

- Рекомендуется присутствие родителей


Роли дублировали:
Сергей Бурунов - Gru, Владимир Еремин - Eduardo, El Macho, Лиза Мартиросова - Margo, Диомид Виноградов - Floyd, Прохор Чеховской - Antonio, Иван Жарков - Arctic Lab Guard
Описание:
В то время как Грю, бывший суперзлодей, приспосабливается к семейной жизни и пытается честным трудом зарабатывать в сфере бизнеса, тайные лаборатории Арктики оказываются украденными. Анти-Злодейская лига решает, что она нуждается в помощи Грю и его новобранцев в расследовании.
[*] Все голоса миньонов в оригинальной озвучке принадлежат режиссерам картины Пьеру Соффину и Крису Рено. В эпизоде битвы Грю с курицей в ресторане Эль Мачо есть отсылка к фильму «Чужой», когда курица вырывается через свитер Грю в районе груди. Финальная песня миньонов в российском прокате содержит слово «труселя», а в украинском — «у трусах». Вместо Леонида Ярмольника, который озвучивал Грю в первой части мультфильма, голос в русском дубляже достался Сергею Бурунову. В сцене, где Люси Уайлд дает Грю номер телефона, чтобы тот связался с ней, отчетливо видны следующие цифры: 626-584-5723. Если позвонить по этому номеру, то можно услышать голосовое сообщение от Кристен Уиг в образе агента Люси Уайлд. Когда Грю осматривает торговый центр, он видит мужчину, который надувает шарик, чтобы затем лопнуть его и заставить ребенка заплакать. Плачущий ребенок — это тот же самый ребенок, которого Грю заставил плакать, лопнув шарик в начале первого фильма. Когда Грю впервые посещает миньонов в подземной мастерской, можно заметить нескольких миньонов, кушающих на вершине поперечной балки. Эта сцена сделана в честь знаменитой фотографии «Обед на небоскребе» 1932 года. Первоначально Аль Пачино досталась роль Эдуардо, и он даже записал его фразы, но затем покинул проект из-за творческих разногласий. Вместо него роль получил Бенджамин Брэтт. В начале фильма показывают людей в желтых рубашках, которые разговаривают на иностранном языке. Это намек на оригинальный дизайн миньонов для фильма «Гадкий я» (2010). Их итоговый укороченный внешний вид появился из-за низкого бюджета первого фильма. Хавьер Бардем должен был озвучить злодея, но покинул проект. На свадьбе Грю и Люси миньоны в белых костюмах начинают петь песню «I swear» группы All-4-One. Участники этой группы также были в белых костюмах в клипе на эту песню. В начале фильма, когда появляется корабль-магнит, один из исследователей падает и кричит «криком Вильгельма». На рабочем месте доктора Нефарио приколото его фото на пляже. Точно такое же фото появлялось во время его звонка на мобильном телефоне Грю в первой части. Это первый сиквел студии Illumination Entertainment. В доме Грю лепестки цветка на картине складываются в символ биологически опасного вещества. Есть небольшая сцена в фильме, где Эдит играет в пинг-понг с миньоном, но использует нунчаки вместо ракетки. Это намек на известную китайскую рекламу Nokia, в которой человек, пародирующий Брюса Ли, играет в пинг-понг, используя нунчаки. Есть по крайней мере два миньона по имени Кевин. В первом фильме Кевином зовут одноглазого миньона, а в сиквеле Кевин — это более высокий миньон с двумя глазами. В сцене, где Грю пробирается на базу Эль Мачо, притворяясь схваченным двумя мутировавшими миньонами, которые на самом деле выкрашены глазурью, есть отсылка к фильму «Вторжение похитителей тел» (1978), когда один из миньонов обнаруживает себя.


Внимание!

Рип в High 10 Profile, в настоящее время не поддерживается большинством аппаратных проигрывателей.
Для корректного воспроизведения может потребоваться обновление ПО.
Владельцам несовместимого железа просьба не беспокоить, на трекере есть альтернативные релизы.


Качество: BDRip 1080p Hi10P (SSIM: 0.9883783)
Исходник: Blu-Ray Disc
Контейнер: MKV
Видео кодек: x264 High10@L5.1
Аудио кодек: DTS/AC-3
Видео: AVC at 5620 Кбит/сек, 1920 x 1040 (1.846) at 23.976 fps
Аудио: DTS at 768 Кбит/сек, 6 каналов, 48,0 КГц
Аудио мини-фильмов: AC-3 at 384 Кбит/сек, 6 каналов, 48,0 КГц
Субтитры 1: русские форсированные на места без перевода (SRT/UTF-8)
Субтитры 2: русские, полные (SRT/UTF-8)
Навигация по главам: есть


Общее
Уникальный идентификатор : 244158722850496384441280091172098183737 (0xB7AF427201D683BBBEAA1A6FECE69239)
Полное имя : Гадкий я 2 [Despicable Me 2] (2013) BDRip-Hi10P 1080p by_F.HD.mkv
Формат : Matroska
Версия формата : Version 4 / Version 2
Размер файла : 4,37 Гбайт
Продолжительность : 1 ч. 37 м.
Общий поток : 6385 Кбит/сек
Название фильма : релиз от FREEISLAND.ORG
Дата кодирования : UTC 2013-10-26 20:16:50
Программа кодирования : mkvmerge v6.5.0 ('Isn't she lovely') built on Oct 20 2013 12:50:05
Библиотека кодирования : libebml v1.3.0 + libmatroska v1.4.1

Видео
Идентификатор : 1
Формат : AVC
Формат/Информация : Advanced Video Codec
Профиль формата : High 10@L5.1
Параметр CABAC формата : Да
Параметр ReFrames формата : 16 кадров
Идентификатор кодека : V_MPEG4/ISO/AVC
Продолжительность : 1 ч. 37 м.
Битрейт : 5620 Кбит/сек
Ширина : 1920 пикселей
Высота : 1040 пикселей
Соотношение сторон : 1,85:1
Режим частоты кадров : Постоянный
Частота кадров : 23,976 кадра/сек
Цветовое пространство : YUV
Субдискретизация насыщенности : 4:2:0
Битовая глубина : 10 бит
Тип развёртки : Прогрессивная
Бит/(Пиксели*Кадры) : 0.117
Размер потока : 3,76 Гбайт (86%)
Библиотека кодирования : x264 core 138 r2359+704+48 3f879a0 tMod [10-bit@all X86_64]
Настройки программы : cabac=1 / ref=16 / deblock=1:0:1 / analyse=0x3:0x133 / me=umh / subme=11 / psy=1 / fade_compensate=0.00 / psy_rd=1.00:0.06 / mixed_ref=1 / me_range=64 / chroma_me=1 / trellis=2 / 8x8dct=1 / cqm=0 / deadzone=21,11 / fast_pskip=0 / chroma_qp_offset=-3 / threads=12 / lookahead_threads=2 / sliced_threads=0 / nr=0 / decimate=1 / interlaced=0 / bluray_compat=0 / constrained_intra=0 / fgo=0 / bframes=9 / b_pyramid=2 / b_adapt=2 / b_bias=0 / direct=3 / weightb=1 / open_gop=0 / weightp=2 / keyint=262 / keyint_min=20 / scenecut=40 / intra_refresh=0 / rc_lookahead=0 / rc=2pass / mbtree=0 / bitrate=5620 / ratetol=1.0 / qcomp=1.00 / qpmin=0:0:0 / qpmax=48:48:48 / qpstep=4 / cplxblur=20.0 / qblur=0.5 / vbv_maxrate=240000 / vbv_bufsize=240000 / nal_hrd=none / ip_ratio=1.40 / pb_ratio=1.30 / aq=4:0.78 / aq-sensitivity=15.00 / aq-factor=1.00:1.00:1.00 / aq2=1:1.10 / aq2-sensitivity=10.00 / aq2-factor=1.00:1.00:1.00 / aq3=0
Default : Да
Forced : Нет
Основные цвета : BT.709
Характеристики трансфера : BT.709
Коэффициенты матрицы : BT.709

Аудио
Идентификатор : 2
Формат : DTS
Формат/Информация : Digital Theater Systems
Режим : 16
Параметр Endianness формата : Big
Идентификатор кодека : A_DTS
Продолжительность : 1 ч. 37 м.
Вид битрейта : Постоянный
Битрейт : 768 Кбит/сек
Каналы : 6 каналов
Расположение каналов : Front: L C R, Side: L R, LFE
Частота : 48,0 КГц
Битовая глубина : 24 бит
Метод сжатия : С потерями
Размер потока : 538 Мбайт (12%)
Заголовок : Dub
Язык : Russian
Default : Да
Forced : Нет

Текст #1
Идентификатор : 3
Формат : UTF-8
Идентификатор кодека : S_TEXT/UTF8
Идентификатор кодека/Информация : UTF-8 Plain Text
Заголовок : на места без перевода
Язык : Russian
Default : Да
Forced : Да

Текст #2
Идентификатор : 4
Формат : UTF-8
Идентификатор кодека : S_TEXT/UTF8
Идентификатор кодека/Информация : UTF-8 Plain Text
Заголовок : полные на дубляж
Язык : Russian
Default : Нет
Forced : Нет

Меню
00:00:00.000 : :01. Global Panic
00:03:22.994 : :02. Meet Gru
00:08:04.734 : :03. Crime Of The Century
00:15:50.866 : :04. Home for Girls
00:18:28.232 : :05. Bank of Evil
00:24:36.892 : :06. Shrink Ray Theft
00:30:50.723 : :07. Vector's Fortress
00:34:40.703 : :08. Adoption
00:40:48.279 : :09. Setting Some Rules
00:46:26.200 : :10. Top Secret
00:51:23.121 : :11. Pinky Promise
00:56:27.425 : :12. Cookiebots
01:00:00.471 : :13. Fun Land
01:03:27.053 : :14. Cotton Candy?
01:08:44.078 : :15. New Funding
01:14:01.979 : :16. Sleepy Kittens
01:18:08.058 : :17. To The Moon
01:22:33.907 : :18. Rescue
01:27:09.098 : :19. One Big Unicorn
01:30:33.719 : :20. End Titles

















Мини-фильмы. Миньоны / Mini-Movies. Minions




Общее
Уникальный идентификатор : 236597852145835842487159235783122823464 (0xB1FF16BD12E32A5DAC6DA2EE150D2928)
Полное имя : Щенок [Puppy] (2013) BDRip-Hi10P 1080p by_F.HD.mkv
Формат : Matroska
Версия формата : Version 4 / Version 2
Размер файла : 196 Мбайт
Продолжительность : 4 м. 33 с.
Общий поток : 5997 Кбит/сек
Название фильма : релиз от FREEISLAND.ORG
Дата кодирования : UTC 2013-10-26 19:44:50
Программа кодирования : mkvmerge v6.5.0 ('Isn't she lovely') built on Oct 20 2013 12:50:05
Библиотека кодирования : libebml v1.3.0 + libmatroska v1.4.1

Видео
Идентификатор : 1
Формат : AVC
Формат/Информация : Advanced Video Codec
Профиль формата : High 10@L5.1
Параметр CABAC формата : Да
Параметр ReFrames формата : 16 кадров
Идентификатор кодека : V_MPEG4/ISO/AVC
Продолжительность : 4 м. 33 с.
Битрейт : 5620 Кбит/сек
Ширина : 1920 пикселей
Высота : 1040 пикселей
Соотношение сторон : 1,85:1
Режим частоты кадров : Постоянный
Частота кадров : 23,976 кадра/сек
Цветовое пространство : YUV
Субдискретизация насыщенности : 4:2:0
Битовая глубина : 10 бит
Тип развёртки : Прогрессивная
Бит/(Пиксели*Кадры) : 0.117
Размер потока : 179 Мбайт (92%)
Библиотека кодирования : x264 core 138 r2359+704+48 3f879a0 tMod [10-bit@all X86_64]
Настройки программы : cabac=1 / ref=16 / deblock=1:0:1 / analyse=0x3:0x133 / me=umh / subme=11 / psy=1 / fade_compensate=0.00 / psy_rd=1.00:0.06 / mixed_ref=1 / me_range=64 / chroma_me=1 / trellis=2 / 8x8dct=1 / cqm=0 / deadzone=21,11 / fast_pskip=0 / chroma_qp_offset=-3 / threads=12 / lookahead_threads=2 / sliced_threads=0 / nr=0 / decimate=1 / interlaced=0 / bluray_compat=0 / constrained_intra=0 / fgo=0 / bframes=9 / b_pyramid=2 / b_adapt=2 / b_bias=0 / direct=3 / weightb=1 / open_gop=0 / weightp=2 / keyint=262 / keyint_min=20 / scenecut=40 / intra_refresh=0 / rc_lookahead=0 / rc=2pass / mbtree=0 / bitrate=5620 / ratetol=1.0 / qcomp=1.00 / qpmin=0:0:0 / qpmax=48:48:48 / qpstep=4 / cplxblur=20.0 / qblur=0.5 / vbv_maxrate=240000 / vbv_bufsize=240000 / nal_hrd=none / ip_ratio=1.40 / pb_ratio=1.30 / aq=4:0.78 / aq-sensitivity=15.00 / aq-factor=1.00:1.00:1.00 / aq2=1:1.10 / aq2-sensitivity=10.00 / aq2-factor=1.00:1.00:1.00 / aq3=0
Default : Да
Forced : Нет
Основные цвета : BT.709
Характеристики трансфера : BT.709
Коэффициенты матрицы : BT.709

Аудио
Идентификатор : 2
Формат : AC-3
Формат/Информация : Audio Coding 3
Расширение режима : CM (complete main)
Параметр Endianness формата : Big
Идентификатор кодека : A_AC3
Продолжительность : 4 м. 33 с.
Вид битрейта : Постоянный
Битрейт : 384 Кбит/сек
Каналы : 6 каналов
Расположение каналов : Front: L C R, Side: L R, LFE
Частота : 48,0 КГц
Битовая глубина : 16 бит
Метод сжатия : С потерями
Размер потока : 12,5 Мбайт (6%)
Default : Да
Forced : Нет




Общее
Уникальный идентификатор : 242901030488549561072728692999807010115 (0xB6BD096CA52013B897ED9E0A218F8543)
Полное имя : Паника в отделе корреспонденции [Panic in the Mailroom] (2013) BDRip-Hi10P 1080p by_F.HD.mkv
Формат : Matroska
Версия формата : Version 4 / Version 2
Размер файла : 181 Мбайт
Продолжительность : 4 м. 14 с.
Общий поток : 5971 Кбит/сек
Название фильма : релиз от FREEISLAND.ORG
Дата кодирования : UTC 2013-10-26 19:45:28
Программа кодирования : mkvmerge v6.5.0 ('Isn't she lovely') built on Oct 20 2013 12:50:05
Библиотека кодирования : libebml v1.3.0 + libmatroska v1.4.1

Видео
Идентификатор : 1
Формат : AVC
Формат/Информация : Advanced Video Codec
Профиль формата : High 10@L5.1
Параметр CABAC формата : Да
Параметр ReFrames формата : 16 кадров
Идентификатор кодека : V_MPEG4/ISO/AVC
Продолжительность : 4 м. 14 с.
Битрейт : 5620 Кбит/сек
Ширина : 1920 пикселей
Высота : 1040 пикселей
Соотношение сторон : 1,85:1
Режим частоты кадров : Постоянный
Частота кадров : 23,976 кадра/сек
Цветовое пространство : YUV
Субдискретизация насыщенности : 4:2:0
Битовая глубина : 10 бит
Тип развёртки : Прогрессивная
Бит/(Пиксели*Кадры) : 0.117
Размер потока : 166 Мбайт (92%)
Библиотека кодирования : x264 core 138 r2359+704+48 3f879a0 tMod [10-bit@all X86_64]
Настройки программы : cabac=1 / ref=16 / deblock=1:0:1 / analyse=0x3:0x133 / me=umh / subme=11 / psy=1 / fade_compensate=0.00 / psy_rd=1.00:0.06 / mixed_ref=1 / me_range=64 / chroma_me=1 / trellis=2 / 8x8dct=1 / cqm=0 / deadzone=21,11 / fast_pskip=0 / chroma_qp_offset=-3 / threads=12 / lookahead_threads=2 / sliced_threads=0 / nr=0 / decimate=1 / interlaced=0 / bluray_compat=0 / constrained_intra=0 / fgo=0 / bframes=9 / b_pyramid=2 / b_adapt=2 / b_bias=0 / direct=3 / weightb=1 / open_gop=0 / weightp=2 / keyint=262 / keyint_min=20 / scenecut=40 / intra_refresh=0 / rc_lookahead=0 / rc=2pass / mbtree=0 / bitrate=5620 / ratetol=1.0 / qcomp=1.00 / qpmin=0:0:0 / qpmax=48:48:48 / qpstep=4 / cplxblur=20.0 / qblur=0.5 / vbv_maxrate=240000 / vbv_bufsize=240000 / nal_hrd=none / ip_ratio=1.40 / pb_ratio=1.30 / aq=4:0.78 / aq-sensitivity=15.00 / aq-factor=1.00:1.00:1.00 / aq2=1:1.10 / aq2-sensitivity=10.00 / aq2-factor=1.00:1.00:1.00 / aq3=0
Default : Да
Forced : Нет
Основные цвета : BT.709
Характеристики трансфера : BT.709
Коэффициенты матрицы : BT.709

Аудио
Идентификатор : 2
Формат : AC-3
Формат/Информация : Audio Coding 3
Расширение режима : CM (complete main)
Параметр Endianness формата : Big
Идентификатор кодека : A_AC3
Продолжительность : 4 м. 14 с.
Вид битрейта : Постоянный
Битрейт : 384 Кбит/сек
Каналы : 6 каналов
Расположение каналов : Front: L C R, Side: L R, LFE
Частота : 48,0 КГц
Битовая глубина : 16 бит
Метод сжатия : С потерями
Размер потока : 11,6 Мбайт (6%)
Default : Да
Forced : Нет




Общее
Уникальный идентификатор : 254459610936813566250416622945058192118 (0xBF6F237069AE8BC9AB8B659B2FE07AF6)
Полное имя : Страховочные колеса [Training Wheels] (2013) BDRip-Hi10P 1080p by_F.HD.mkv
Формат : Matroska
Версия формата : Version 4 / Version 2
Размер файла : 179 Мбайт
Продолжительность : 4 м. 12 с.
Общий поток : 5927 Кбит/сек
Название фильма : релиз от FREEISLAND.ORG
Дата кодирования : UTC 2013-10-26 20:11:41
Программа кодирования : mkvmerge v6.5.0 ('Isn't she lovely') built on Oct 20 2013 12:50:05
Библиотека кодирования : libebml v1.3.0 + libmatroska v1.4.1

Видео
Идентификатор : 1
Формат : AVC
Формат/Информация : Advanced Video Codec
Профиль формата : High 10@L5.1
Параметр CABAC формата : Да
Параметр ReFrames формата : 16 кадров
Идентификатор кодека : V_MPEG4/ISO/AVC
Продолжительность : 4 м. 12 с.
Битрейт : 5620 Кбит/сек
Ширина : 1920 пикселей
Высота : 1040 пикселей
Соотношение сторон : 1,85:1
Режим частоты кадров : Постоянный
Частота кадров : 23,976 кадра/сек
Цветовое пространство : YUV
Субдискретизация насыщенности : 4:2:0
Битовая глубина : 10 бит
Тип развёртки : Прогрессивная
Бит/(Пиксели*Кадры) : 0.117
Размер потока : 163 Мбайт (92%)
Библиотека кодирования : x264 core 138 r2359+704+48 3f879a0 tMod [10-bit@all X86_64]
Настройки программы : cabac=1 / ref=16 / deblock=1:0:1 / analyse=0x3:0x133 / me=umh / subme=11 / psy=1 / fade_compensate=0.00 / psy_rd=1.00:0.06 / mixed_ref=1 / me_range=64 / chroma_me=1 / trellis=2 / 8x8dct=1 / cqm=0 / deadzone=21,11 / fast_pskip=0 / chroma_qp_offset=-3 / threads=12 / lookahead_threads=2 / sliced_threads=0 / nr=0 / decimate=1 / interlaced=0 / bluray_compat=0 / constrained_intra=0 / fgo=0 / bframes=9 / b_pyramid=2 / b_adapt=2 / b_bias=0 / direct=3 / weightb=1 / open_gop=0 / weightp=2 / keyint=262 / keyint_min=20 / scenecut=40 / intra_refresh=0 / rc_lookahead=0 / rc=2pass / mbtree=0 / bitrate=5620 / ratetol=1.0 / qcomp=1.00 / qpmin=0:0:0 / qpmax=48:48:48 / qpstep=4 / cplxblur=20.0 / qblur=0.5 / vbv_maxrate=240000 / vbv_bufsize=240000 / nal_hrd=none / ip_ratio=1.40 / pb_ratio=1.30 / aq=4:0.78 / aq-sensitivity=15.00 / aq-factor=1.00:1.00:1.00 / aq2=1:1.10 / aq2-sensitivity=10.00 / aq2-factor=1.00:1.00:1.00 / aq3=0
Default : Да
Forced : Нет
Основные цвета : BT.709
Характеристики трансфера : BT.709
Коэффициенты матрицы : BT.709

Аудио
Идентификатор : 2
Формат : AC-3
Формат/Информация : Audio Coding 3
Расширение режима : CM (complete main)
Параметр Endianness формата : Big
Идентификатор кодека : A_AC3
Продолжительность : 4 м. 12 с.
Вид битрейта : Постоянный
Битрейт : 384 Кбит/сек
Каналы : 6 каналов
Расположение каналов : Front: L C R, Side: L R, LFE
Частота : 48,0 КГц
Битовая глубина : 16 бит
Метод сжатия : С потерями
Размер потока : 11,6 Мбайт (6%)
Язык : English
Default : Да
Forced : Нет

Текст
Идентификатор : 3
Формат : UTF-8
Идентификатор кодека : S_TEXT/UTF8
Идентификатор кодека/Информация : UTF-8 Plain Text
Язык : Russian
Default : Да
Forced : Да








Релиз от:

Если у вас возникают вопросы типа:
-почему у меня есть звук и отсутствует изображение?
-почему у меня рассыпается картинка?
-почему у меня картинка фонит синевой или зеленью?
-зачем и кому всё это нужно?
и тому подобные, читаем FAQ.
ссылка на FAQ запрещена правилами.

По этому, гуглим на тему спойлера (Что такое 10-ти битное видео (High 10 Profile - Hi10P), и как его смотреть?).



   Похожие торренты   Торрент   Размер 
В этой теме нет новых непрочитанных сообщений. Гадкий Я 2: Мини-фильмы. Миньоны / Despicable Me 2: Mini-Movies. Minions (2013) BDRip

184 | 12

214.94 МБ

В этой теме нет новых непрочитанных сообщений. Гадкий Я 2: Мини-фильмы. Миньоны / Despicable Me 2: Mini-Movies. Minions (2013) BDRip от HQ Underverse

121 | 4

209.64 МБ

В этой теме нет новых непрочитанных сообщений. Гадкий Я 2: Мини-фильмы. Миньоны / Despicable Me 2: Mini-Movies. Minions (2013) BDRip-AVC от leonardo 59 & Scarabey

231 | 7

186.42 МБ

В этой теме нет новых непрочитанных сообщений. Гадкий Я 2: Мини-фильмы. Миньоны / Despicable Me 2: Mini-Movies. Minions (2013) BDRip 720p от leonardo 59 & Scarabey

227 | 10

384.51 МБ

В этой теме нет новых непрочитанных сообщений. Гадкий Я: Мини-фильмы. Миньоны / Despicable Me Presents: Minions Mini-Movies; Minion Madness [01-06] (2010-2013) DVDRip от HitWay

1683 | 71

341 МБ

В этой теме нет новых непрочитанных сообщений. Гадкий Я: Мини-фильмы / Despicable Me: Mini-Movies (2010) BDRip от HQCLUB

193 | 28

241.01 МБ

В этой теме нет новых непрочитанных сообщений. Гадкий Я: Мини-фильмы / Despicable Me: Mini-Movies (2010) BDRip-AVC от leonardo 59 & Scarabey

285 | 5

172.85 МБ




Вы не можете начинать темы
Вы не можете отвечать на сообщения
Вы не можете редактировать свои сообщения
Вы не можете удалять свои сообщения
Вы не можете добавлять вложения

Перейти:  
Для Мосгорсуда, Роскомнадзора и рекламодателей: mosgorsud-torrent[собачка]yandex.ru
 Вход
ppkBB3cker v.2 © 2008-2014 @ PPK
[ Time : 0.030s | 13 Queries | GZIP : Off ]
CGP output time : 0.042s | 5 Queries | GZIP : Off

Торрент трекер RUTOR.IN, Не можете зайти на rutor.org? Какой новый адрес рутор? Какое зеркало рутор? Не работает rutor.org и зеркала? Тогда наш торрент специально для вас. Rutor.in неофициальное зеркало rutor. В случае если у Вас заблокирован rutor или вдруг Вы не можете на него зайти, то Вы без труда сможете скачать бесплатно и без рекламы последние новинки кино, игр, сериалов и прочего у нас, на Rutor.in. Не нужно использовать прокси, чтобы зайти на рутор, достаточно воспользоваться нашим ресурсом. Все новые фильмы, игры, сериалы, книги и музыка за 2013 и 2014 годы через торрент бесплатно. Скачивайте фильмы в хорошем качестве, игры для пк, xbox, playstation без регистрации. У нас вы найдете новые Зарубежные сериалы и Русские сериалы 2013, 2014, 2015 годов. Оставайтесь с нами, качайте любимые фильмы, игры, сериалы, книги и музыку.