img image001 image001 image001 image001 image001 image001 image001 image001 image001 image001 image001 image001 image001 image001 image001

Planets Sun Sun Sun
Статистика раздачи
Автор: PriZraK | Размер: 3.36 ГБ | Добавлен: 15 фев 2014
Раздают: 2    Качают: 3
Скачать торрент
Скачать торрент
Описание торрента

СообщениеДобавлено: 15 фев 2014 




Информация о фильме

Название: Турбо
Оригинальное название: Turbo
Год выпуска: 2013
Жанр: Мультфильм, детский, семейный, полнометражный
Выпущено: США, DreamWorks Animation
Режиссер: Дэвид Сорен
В ролях: Райан Рейнольдс, Пол Джаматти, Майкл Пенья, Луис Гузман, Билл Хейдер, Ричард Дженкинс, Кен Жонг, Мишель Родригес, Майя Рудольф, Бен Шварц
О фильме: Ничто так не раздражает темпераментную, мечтающую о скорости улитку с говорящим именем Турбо как неспешная жизнь, медленные разговоры, заторможенные соседи. Пусть наш герой выглядит большим чудаком в этом вялом, неторопливом мире, пусть он идет вопреки закону природы о «рожденном ползать», но если в сердце горит «пламенный мотор», а душа верит в чудо, оно просто не имеет право не произойти!

Файл

Качество: BDRip (AVC)
Видео: MPEG-4 AVC, 2340 Кбит/с, 1024x436
Аудио: Русский, латышский, литовскиий, эстонский, украинский, английский (AC3, 6 ch, 448 Кбит/с)
Размер: 3.36 ГБ
Продолжительность: 01:35:40
Перевод: Дублированный
Субтитры: Русские, латышские, литовские, украинские, английские
Общее
Уникальный идентификатор : 219207616711903585277303598850897360314 (0xA4E9D9EF3609B6C4B42991E4F7C835BA)
Полное имя : C:ЗагрузкиTurbo.2013.x264.BDRip.(AVC).ExKinoRay.mkv
Формат : Matroska
Версия формата : Version 2
Размер файла : 3,36 Гбайт
Продолжительность : 1 ч. 35 м.
Общий поток : 5023 Кбит/сек
Название фильма : Turbo. 2013. Rip by: ollan
Дата кодирования : UTC 2013-10-27 13:10:11
Программа кодирования : mkvmerge v5.6.0 ('Kenya Kane') built on May 27 2012 16:44:04
Библиотека кодирования : libebml v1.2.3 + libmatroska v1.3.0

Видео
Идентификатор : 1
Формат : AVC
Формат/Информация : Advanced Video Codec
Профиль формата : High@L4.1
Параметр CABAC формата : Да
Параметр ReFrames формата : 9 кадров
Идентификатор кодека : V_MPEG4/ISO/AVC
Продолжительность : 1 ч. 35 м.
Битрейт : 2340 Кбит/сек
Ширина : 1024 пикселя
Высота : 436 пикселей
Соотношение сторон : 2,35:1
Режим частоты кадров : Постоянный
Частота кадров : 23,976 кадра/сек
Цветовое пространство : YUV
Субдискретизация насыщенности : 4:2:0
Битовая глубина : 8 бит
Тип развёртки : Прогрессивная
Бит/(Пиксели*Кадры) : 0.219
Размер потока : 1,49 Гбайт (44%)
Библиотека кодирования : x264 core 125 r2200 999b753
Настройки программы : cabac=1 / ref=9 / deblock=1:-2:-2 / analyse=0x3:0x133 / me=umh / subme=11 / psy=1 / psy_rd=1.00:0.10 / mixed_ref=1 / me_range=32 / chroma_me=1 / trellis=2 / 8x8dct=1 / cqm=0 / deadzone=21,11 / fast_pskip=0 / chroma_qp_offset=-3 / threads=12 / lookahead_threads=2 / sliced_threads=0 / nr=0 / decimate=0 / interlaced=0 / bluray_compat=0 / constrained_intra=0 / bframes=11 / b_pyramid=2 / b_adapt=2 / b_bias=0 / direct=3 / weightb=1 / open_gop=0 / weightp=2 / keyint=240 / keyint_min=23 / scenecut=40 / intra_refresh=0 / rc_lookahead=40 / rc=2pass / mbtree=1 / bitrate=2340 / ratetol=1.0 / qcomp=0.60 / qpmin=0 / qpmax=69 / qpstep=4 / cplxblur=20.0 / qblur=0.5 / vbv_maxrate=5000 / vbv_bufsize=62500 / nal_hrd=none / ip_ratio=1.40 / aq=1:1.00
Default : Да
Forced : Нет

Аудио #1
Идентификатор : 2
Формат : AC-3
Формат/Информация : Audio Coding 3
Расширение режима : CM (complete main)
Параметр Endianness формата : Big
Идентификатор кодека : A_AC3
Продолжительность : 1 ч. 35 м.
Вид битрейта : Постоянный
Битрейт : 448 Кбит/сек
Каналы : 6 каналов
Расположение каналов : Front: L C R, Side: L R, LFE
Частота : 48,0 КГц
Битовая глубина : 16 бит
Метод сжатия : С потерями
Размер потока : 307 Мбайт (9%)
Заголовок : Дублированный (лицензия)
Язык : Russian
Default : Да
Forced : Да

Аудио #2
Идентификатор : 3
Формат : AC-3
Формат/Информация : Audio Coding 3
Расширение режима : CM (complete main)
Параметр Endianness формата : Big
Идентификатор кодека : A_AC3
Продолжительность : 1 ч. 35 м.
Вид битрейта : Постоянный
Битрейт : 448 Кбит/сек
Каналы : 6 каналов
Расположение каналов : Front: L C R, Side: L R, LFE
Частота : 48,0 КГц
Битовая глубина : 16 бит
Метод сжатия : С потерями
Размер потока : 307 Мбайт (9%)
Язык : Latvian
Default : Нет
Forced : Нет

Аудио #3
Идентификатор : 4
Формат : AC-3
Формат/Информация : Audio Coding 3
Расширение режима : CM (complete main)
Параметр Endianness формата : Big
Идентификатор кодека : A_AC3
Продолжительность : 1 ч. 35 м.
Вид битрейта : Постоянный
Битрейт : 448 Кбит/сек
Каналы : 6 каналов
Расположение каналов : Front: L C R, Side: L R, LFE
Частота : 48,0 КГц
Битовая глубина : 16 бит
Метод сжатия : С потерями
Размер потока : 307 Мбайт (9%)
Язык : Lithuanian
Default : Нет
Forced : Нет

Аудио #4
Идентификатор : 5
Формат : AC-3
Формат/Информация : Audio Coding 3
Расширение режима : CM (complete main)
Параметр Endianness формата : Big
Идентификатор кодека : A_AC3
Продолжительность : 1 ч. 35 м.
Вид битрейта : Постоянный
Битрейт : 448 Кбит/сек
Каналы : 6 каналов
Расположение каналов : Front: L C R, Side: L R, LFE
Частота : 48,0 КГц
Битовая глубина : 16 бит
Метод сжатия : С потерями
Размер потока : 307 Мбайт (9%)
Язык : Estonian
Default : Нет
Forced : Нет

Аудио #5
Идентификатор : 6
Формат : AC-3
Формат/Информация : Audio Coding 3
Расширение режима : CM (complete main)
Параметр Endianness формата : Big
Идентификатор кодека : A_AC3
Продолжительность : 1 ч. 35 м.
Вид битрейта : Постоянный
Битрейт : 448 Кбит/сек
Каналы : 6 каналов
Расположение каналов : Front: L C R, Side: L R, LFE
Частота : 48,0 КГц
Битовая глубина : 16 бит
Метод сжатия : С потерями
Размер потока : 307 Мбайт (9%)
Язык : Ukrainian
Default : Нет
Forced : Нет

Аудио #6
Идентификатор : 7
Формат : AC-3
Формат/Информация : Audio Coding 3
Расширение режима : CM (complete main)
Параметр Endianness формата : Big
Идентификатор кодека : A_AC3
Продолжительность : 1 ч. 35 м.
Вид битрейта : Постоянный
Битрейт : 448 Кбит/сек
Каналы : 6 каналов
Расположение каналов : Front: L C R, Side: L R, LFE
Частота : 48,0 КГц
Битовая глубина : 16 бит
Метод сжатия : С потерями
Размер потока : 307 Мбайт (9%)
Язык : English
Default : Нет
Forced : Нет

Текст #1
Идентификатор : 8
Формат : UTF-8
Идентификатор кодека : S_TEXT/UTF8
Идентификатор кодека/Информация : UTF-8 Plain Text
Язык : Russian
Default : Нет
Forced : Нет

Текст #2
Идентификатор : 9
Формат : UTF-8
Идентификатор кодека : S_TEXT/UTF8
Идентификатор кодека/Информация : UTF-8 Plain Text
Язык : Latvian
Default : Нет
Forced : Нет

Текст #3
Идентификатор : 10
Формат : UTF-8
Идентификатор кодека : S_TEXT/UTF8
Идентификатор кодека/Информация : UTF-8 Plain Text
Язык : Lithuanian
Default : Нет
Forced : Нет

Текст #4
Идентификатор : 11
Формат : UTF-8
Идентификатор кодека : S_TEXT/UTF8
Идентификатор кодека/Информация : UTF-8 Plain Text
Язык : Ukrainian
Default : Нет
Forced : Нет

Текст #5
Идентификатор : 12
Формат : UTF-8
Идентификатор кодека : S_TEXT/UTF8
Идентификатор кодека/Информация : UTF-8 Plain Text
Язык : English
Default : Нет
Forced : Нет

Меню
00:00:00.000 : en:00:00:00.000
00:03:29.626 : en:00:03:29.626
00:06:39.858 : en:00:06:39.858
00:08:34.222 : en:00:08:34.222
00:10:13.863 : en:00:10:13.863
00:13:25.096 : en:00:13:25.096
00:17:15.785 : en:00:17:15.785
00:21:53.354 : en:00:21:53.354
00:25:42.708 : en:00:25:42.708
00:28:24.494 : en:00:28:24.494
00:30:17.899 : en:00:30:17.899
00:34:20.892 : en:00:34:20.892
00:38:20.340 : en:00:38:20.340
00:40:45.109 : en:00:40:45.109
00:44:40.219 : en:00:44:40.219
00:47:40.941 : en:00:47:40.941
00:49:29.925 : en:00:49:29.925
00:53:28.956 : en:00:53:28.956
00:57:00.751 : en:00:57:00.751
00:59:38.825 : en:00:59:38.825
01:02:05.972 : en:01:02:05.972
01:05:50.780 : en:01:05:50.780
01:08:07.166 : en:01:08:07.166
01:13:08.801 : en:01:13:08.801
01:16:26.791 : en:01:16:26.791
01:19:48.450 : en:01:19:48.450
01:23:26.126 : en:01:23:26.126
01:26:29.726 : en:01:26:29.726






Релиз от: Rip by:



   Похожие торренты   Торрент   Размер 
В этой теме нет новых непрочитанных сообщений. Турбо / Turbo (2013) BDRip-AVC от HELLYWOOD | D | Лицензия

42 | 4

1.46 ГБ

В этой теме нет новых непрочитанных сообщений. Турбо / Turbo (2013) BDRip-AVC от HELLYWOOD | D | Лицензия

27 | 5

2.18 ГБ

В этой теме нет новых непрочитанных сообщений. Турбо / Turbo (2013) BDRip от HQCLUB | Лицензия

2991 | 103

1.45 ГБ

В этой теме нет новых непрочитанных сообщений. Турбо / Turbo (2013) BDRip-AVC от New-Team | D | Лицензия

18 | 3

1.45 ГБ

В этой теме нет новых непрочитанных сообщений. Турбо / Turbo (2013) BDRip-AVC от New-Team | D | Лицензия

20 | 7

748.45 МБ

В этой теме нет новых непрочитанных сообщений. Турбо / Turbo (2013) BDRip-AVC от leonardo 59 & Scarabey | Лицензия

0 | 4

1008.93 МБ

В этой теме нет новых непрочитанных сообщений. Турбо / Turbo (2013) BDRip 1080p | 3D-Video | HOU | Лицензия

5 | 2

8.73 ГБ




Вы не можете начинать темы
Вы не можете отвечать на сообщения
Вы не можете редактировать свои сообщения
Вы не можете удалять свои сообщения
Вы не можете добавлять вложения

Перейти:  
Для Мосгорсуда, Роскомнадзора и рекламодателей: mosgorsud-torrent[собачка]yandex.ru
 Вход
ppkBB3cker v.2 © 2008-2014 @ PPK
[ Time : 0.029s | 15 Queries | GZIP : Off ]

cron