img image001 image001 image001 image001 image001 image001 image001 image001 image001 image001 image001 image001 image001 image001 image001

Planets Sun Sun Sun
Статистика раздачи
Автор: PriZraK | Размер: 1.21 ГБ | Добавлен: 15 фев 2014
Раздают: 330    Качают: 5
Скачать торрент
Скачать торрент
Описание торрента

СообщениеДобавлено: 15 фев 2014 



Информация о фильме
Название: Гадкий я 2
Оригинальное название: Despicable Me 2
Год выхода: 2013
Жанр: мультфильм, фантастика, комедия, криминал, приключения, семейный
Режиссер: Пьер Соффин, Крис Рено
В ролях: Стив Карелл, Кристен Уиг, Бенджамин Брэтт, Миранда Косгров, Расселл Брэнд, Кен Жонг, Стив Куган, Элси Фишер, Дэна Гайер, Мойзес Ариас

О фильме:
В то время как Грю, бывший суперзлодей, приспосабливается к семейной жизни и пытается честным трудом зарабатывать в сфере бизнеса, тайные лаборатории Арктики оказываются украденными. Анти-Злодейская лига решает, что она нуждается в помощи Грю и его новобранцев в расследовании.



Страна: США
Продолжительность: 01:37:58
Перевод: Профессиональный (дублированный)

Файл
Кодек: H.264
Качество: BDRip Исходник: Blu-Ray
Видео: H.264, 640x460 (852х460 анаморф), ~1.85:1, 1500 Kbps, 23.976 fps
Звук:
Русская дорожка, AAC, 2 канала, 48.0 KHz, 128 Kbps, F L,R
Английская дорожка, AAC, 2 канала, 48.0 KHz, 128 Kbps, F L,R

Код:
Media Type: Movie
XID: Apple:vendor_id:2013-tt1690953
Content ID: 664370402
ScreenWriters: Синко Пол, Кен Даурио
Producers: Джанет Хили, Кристофер Меледандри, Роберт Тейлор
Director: Пьер Соффин, Крис Рено
Cast: Стив Карелл, Кристен Уиг, Бенджамин Брэтт, Миранда Косгров, Расселл Брэнд, Кен Жонг, Стив Куган, Элси Фишер, Дэна Гайер, Мойзес Ариас
Rating: PG
Long Deion: В то время как Грю, бывший суперзлодей, приспосабливается к семейной жизни и пытается честным трудом зарабатывать в сфере бизнеса, тайные лаборатории Арктики оказываются украденными. Анти-Злодейская лига решает, что она нуждается в помощи Грю и его новобранцев в расследовании.
Deion: В то время как Грю, бывший суперзлодей, приспосабливается к семейной жизни и пытается честным трудом зарабатывать в сфере бизнеса, тайные лаборатории Арктики оказываются украденными. Анти-Злодейская лига решает, что она нуждается в помощи Грю и...
Release Date: 2013-07-02T07:00:00Z
Genre:  мультфильм, фантастика, комедия, криминал, приключения, семейный
Artist: Пьер Соффин, Крис Рено
Name: Гадкий я 2
Код:
General
Complete name                            : C:UsersNarekDesktopDespicable me 2.mp4
Format                                   : MPEG-4
Format profile                           : Base Media
Codec ID                                 : isom
File size                                : 1.21 GiB
Duration                                 : 1h 37mn
Overall bit rate mode                    : Variable
Overall bit rate                         : 1 767 Kbps
Movie name                               : Гадкий я 2
Performer                                : Пьер Соффин, Крис Рено
Genre                                    :  мультфильм, фантастика, комедия, криминал, приключения, семейный
ContentType                              : Short Film
Deion                              : В то время как Грю, бывший суперзлодей, приспосабливается к семейной жизни и пытается честным трудом зарабатывать в сфере бизнеса, тайные лаборатории Арктики оказываются украденными. Анти-Злодейская лига решает, что она нуждается в помощи Грю и...
Recorded date                            : UTC 2013-07-02 07:00:00
Encoded date                             : UTC 2013-10-26 15:04:39
Tagged date                              : UTC 2013-10-27 15:16:03
Writing application                      : MkvToMp4 [www.mkvtomp4.ru] version: 0.224 (x64)
Cover                                    : Yes
LongDeion                          : В то время как Грю, бывший суперзлодей, приспосабливается к семейной жизни и пытается честным трудом зарабатывать в сфере бизнеса, тайные лаборатории Арктики оказываются украденными. Анти-Злодейская лига решает, что она нуждается в помощи Грю и его новобранцев в расследовании.
AppleStoreCatalogID                      : 664370402
Vendor                                   : Apple:vendor_id:2013-tt1690953
ContentRating                            : mpaa|PG|200|

Video
ID                                       : 1
Format                                   : AVC
Format/Info                              : Advanced Video Codec
Format profile                           : Baseline@L3.0
Format settings, CABAC                   : No
Format settings, ReFrames                : 3 frames
Codec ID                                 : avc1
Codec ID/Info                            : Advanced Video Coding
Duration                                 : 1h 37mn
Bit rate                                 : 1 500 Kbps
Maximum bit rate                         : 6 301 Kbps
Width                                    : 640 pixels
Height                                   : 460 pixels
Display aspect ratio                     : 1.85:1
Frame rate mode                          : Variable
Frame rate                               : 23.976 fps
Minimum frame rate                       : 11.987 fps
Maximum frame rate                       : 23.981 fps
Color space                              : YUV
Chroma subsampling                       : 4:2:0
Bit depth                                : 8 bits
Scan type                                : Progressive
Bits/(Pixel*Frame)                       : 0.213
Stream size                              : 1.03 GiB (85%)
Writing library                          : x264 core 130 r2273 b3065e6
Encoding settings                        : cabac=0 / ref=3 / deblock=1:-1:-1 / analyse=0x1:0x111 / me=umh / subme=9 / psy=1 / psy_rd=1.00:0.15 / mixed_ref=1 / me_range=16 / chroma_me=1 / trellis=1 / 8x8dct=0 / cqm=0 / deadzone=21,11 / fast_pskip=1 / chroma_qp_offset=-3 / threads=6 / lookahead_threads=1 / sliced_threads=0 / nr=0 / decimate=1 / interlaced=0 / bluray_compat=0 / constrained_intra=0 / bframes=0 / weightp=0 / keyint=240 / keyint_min=24 / scenecut=40 / intra_refresh=0 / rc_lookahead=40 / rc=2pass / mbtree=1 / bitrate=1500 / ratetol=1.0 / qcomp=0.60 / qpmin=0 / qpmax=69 / qpstep=4 / cplxblur=20.0 / qblur=0.5 / vbv_maxrate=5000 / vbv_bufsize=5000 / nal_hrd=none / ip_ratio=1.40 / aq=1:1.00
Encoded date                             : UTC 2013-10-27 11:09:04
Tagged date                              : UTC 2013-10-26 15:05:18
Color primaries                          : BT.709
Transfer characteristics                 : BT.709
Matrix coefficients                      : BT.709

Audio #1
ID                                       : 2
Format                                   : AAC
Format/Info                              : Advanced Audio Codec
Format profile                           : LC
Codec ID                                 : 40
Duration                                 : 1h 37mn
Bit rate mode                            : Variable
Bit rate                                 : 128 Kbps
Maximum bit rate                         : 246 Kbps
Channel(s)                               : 2 channels
Channel positions                        : Front: L R
Sampling rate                            : 48.0 KHz
Compression mode                         : Lossy
Stream size                              : 89.7 MiB (7%)
Language                                 : English
Encoded date                             : UTC 2013-10-26 15:05:13
Tagged date                              : UTC 2013-10-26 15:05:18

Audio #2
ID                                       : 3
Format                                   : AAC
Format/Info                              : Advanced Audio Codec
Format profile                           : LC
Codec ID                                 : 40
Duration                                 : 1h 37mn
Bit rate mode                            : Variable
Bit rate                                 : 128 Kbps
Maximum bit rate                         : 239 Kbps
Channel(s)                               : 2 channels
Channel positions                        : Front: L R
Sampling rate                            : 48.0 KHz
Compression mode                         : Lossy
Stream size                              : 89.7 MiB (7%)
Language                                 : Russian
Encoded date                             : UTC 2013-10-26 15:05:15
Tagged date                              : UTC 2013-10-26 15:05:18

Text #1
ID                                       : 4
Format                                   : Timed Text
Muxing mode                              : sbtl
Codec ID                                 : tx3g
Duration                                 : 1h 33mn
Bit rate mode                            : Variable
Bit rate                                 : 58 bps
Stream size                              : 39.7 KiB (0%)
Language                                 : English
Encoded date                             : UTC 2013-10-26 15:05:18
Tagged date                              : UTC 2013-10-26 15:05:18

Text #2
ID                                       : 5
Format                                   : Timed Text
Muxing mode                              : sbtl
Codec ID                                 : tx3g
Duration                                 : 1h 30mn
Bit rate mode                            : Variable
Bit rate                                 : 69 bps
Stream size                              : 46.0 KiB (0%)
Language                                 : Russian
Encoded date                             : UTC 2013-10-26 15:05:18
Tagged date                              : UTC 2013-10-26 15:05:18

Menu
ID                                       : 6
Codec ID                                 : text
Duration                                 : 1h 37mn
Encoded date                             : UTC 2013-10-27 15:16:03
Tagged date                              : UTC 2013-10-27 15:16:03
Bit rate mode                            : VBR
Duration_LastFrame                       : -121212
Код:
x264 [info]: frame I:2040  Avg QP:17.26  size: 42529  PSNR Mean Y:47.18 U:50.23 V:49.63 Avg:47.86 Global:47.01
x264 [info]: frame P:138908 Avg QP:20.09  size:  7304  PSNR Mean Y:44.75 U:47.90 V:47.12 Avg:45.46 Global:44.73
x264 [info]: mb I  I16..4: 25.5%  0.0% 74.5%
x264 [info]: mb P  I16..4:  1.2%  0.0%  3.3%  P16..4: 32.0% 13.6%  7.1%  0.0%  0.0%    skip:42.8%
x264 [info]: coded y,uvDC,uvAC intra: 70.0% 88.3% 69.3% inter: 18.8% 32.7% 12.0%
x264 [info]: i16 v,h,dc,p: 31% 18%  7% 45%
x264 [info]: i4 v,h,dc,ddl,ddr,vr,hd,vl,hu: 15%  9%  4% 11% 14% 15% 12% 11%  8%
x264 [info]: i8c dc,h,v,p: 41% 19% 24% 16%
x264 [info]: ref P L0: 75.4% 14.0% 10.6%
x264 [info]: SSIM Mean Y:0.9865490 (18.712db)
x264 [info]: PSNR Mean Y:44.787 U:47.938 V:47.154 Avg:45.493 Global:44.758 kb/s:1498.69




   Похожие торренты   Торрент   Размер 
В этой теме нет новых непрочитанных сообщений. Гадкий я 3 / Despicable Me 3 (2017) BDRip-AVC от New-Team | Лицензия

164 | 7

761.6 МБ

В этой теме нет новых непрочитанных сообщений. Гадкий я 3 / Despicable Me 3 (2017) BDRip-AVC от New-Team | iTunes

267 | 0

2.06 ГБ

В этой теме нет новых непрочитанных сообщений. Гадкий я 3 / Despicable Me 3 (2017) BDRip-AVC от New-Team | iTunes

147 | 1

1.35 ГБ

В этой теме нет новых непрочитанных сообщений. Гадкий Я / Despicable Me (2010) BDRip 1080p от NoLimits-Team

152 | 8

7.95 ГБ

В этой теме нет новых непрочитанных сообщений. Гадкий я 2 / Despicable Me 2 (2013) BDRip-AVC | D

15 | 4

742.01 МБ

В этой теме нет новых непрочитанных сообщений. Гадкий я 2 / Despicable Me 2 (2013) BDRip от HQ-ViDEO

582 | 106

1.77 ГБ

В этой теме нет новых непрочитанных сообщений. Гадкий я 2 / Despicable Me 2 (2013) BDRip от HQCLUB | Лицензия

10711 | 331

1.45 ГБ




Вы не можете начинать темы
Вы не можете отвечать на сообщения
Вы не можете редактировать свои сообщения
Вы не можете удалять свои сообщения
Вы не можете добавлять вложения

Перейти:  
Для Мосгорсуда, Роскомнадзора и рекламодателей: mosgorsud-torrent[собачка]yandex.ru
 Вход
ppkBB3cker v.2 © 2008-2014 @ PPK
[ Time : 0.134s | 16 Queries | GZIP : Off ]

cron