img image001 image001 image001 image001 image001 image001 image001 image001 image001 image001 image001 image001 image001 image001 image001

Planets Sun Sun Sun
Статистика раздачи
Автор: PriZraK | Размер: 5.58 ГБ | Добавлен: 15 фев 2014
Раздают: 4    Качают: 2
Скачать торрент
Скачать торрент
Описание торрента

СообщениеДобавлено: 15 фев 2014 



Информация о фильме
Название: Удивительные приключения живого трупа
Оригинальное название: The Amazing Adventures Of The Living Corpse
Жанр: ужасы, боевик, мультфильм
Год выпуска: 2012
Режиссёр: Джастин Пол Риттер
В ролях: Маршал Хилтон, Ли Перкинс, Мария Олсен, Конро Брукс, Макс Молион, Бен Л. МакКейн, Райан МакГайверн, Майкл Виллар, Клодин Клаудио

О фильме:
Познакомьтесь с Джоном Ромеро, разлагающимся трупом, наделенным совестью и раскаянием, который в порыве первого голода инфицировал собственную жену и убил свою маленькую дочь. Но теперь упрямому пожирателю мозгов придется с боем прорываться через зловещих демонов ада, чтобы спасти своего уцелевшего сына от ужасов мира живых. Приготовьтесь к приключению, полному отрывания рук и хруста плоти, основанному на инди-комиксах Кена Хейзера и База Хэссона.



Выпущено: США
Продолжительность: 01:27:53
Озвучивание: Любительское (одноголосое) [ХихиДок]

Файл
Формат: MKV
Качество: BDRip 1080p [ROVERS]
Видео: 8257 kb/s, 1920х1080
Дополнительно: Сохранены оригинальные чаптеры как на Blu Ray
Размер: 5.58 GB
Скачать: Сэмпл

Релиз группы:



General
The.Amazing.Adventures.of.the.Living.Corpse.2012.Blu.Ray.1080p.CINEMANIA.mkv
Format : Matroska
Format version : Version 4 / Version 2
File size : 5.58 GiB
Duration : 1h 27mn
Overall bit rate : 9 089 Kbps
Movie name : CINEMANIA.CC
Encoded date : UTC 2013-10-25 18:16:32
Writing application : mkvmerge v6.5.0 ('Isn't she lovely') built on Oct 20 2013 12:50:05
Writing library : libebml v1.3.0 + libmatroska v1.4.1

Video
ID : 1
Format : AVC
Format/Info : Advanced Video Codec
Format profile : High@L4.1
Format settings, CABAC : Yes
Format settings, ReFrames : 4 frames
Codec ID : V_MPEG4/ISO/AVC
Duration : 1h 27mn
Bit rate : 8 257 Kbps
Width : 1 920 pixels
Height : 1 080 pixels
Display aspect ratio : 16:9
Frame rate mode : Constant
Frame rate : 23.976 fps
Color space : YUV
Chroma subsampling : 4:2:0
Bit depth : 8 bits
Scan type : Progressive
Bits/(Pixel*Frame) : 0.166
Stream size : 4.96 GiB (89%)
Title : CINEMANIA.CC
Writing library : x264 core 133 r2334 a3ac64b
Encoding settings : cabac=1 / ref=4 / deblock=1:0:0 / analyse=0x3:0x133 / me=umh / subme=7 / psy=1 / psy_rd=1.00:0.00 / mixed_ref=1 / me_range=16 / chroma_me=1 / trellis=1 / 8x8dct=1 / cqm=0 / deadzone=21,11 / fast_pskip=0 / chroma_qp_offset=-2 / threads=36 / lookahead_threads=6 / sliced_threads=0 / nr=0 / decimate=1 / interlaced=0 / bluray_compat=0 / constrained_intra=0 / bframes=3 / b_pyramid=2 / b_adapt=1 / b_bias=0 / direct=1 / weightb=1 / open_gop=0 / weightp=2 / keyint=250 / keyint_min=23 / scenecut=40 / intra_refresh=0 / rc_lookahead=40 / rc=2pass / mbtree=1 / bitrate=8257 / ratetol=1.0 / qcomp=0.60 / qpmin=0 / qpmax=69 / qpstep=4 / cplxblur=20.0 / qblur=0.5 / ip_ratio=1.40 / aq=1:1.00
Language : English
Default : Yes
Forced : No

Audio #1
ID : 2
Format : AC-3
Format/Info : Audio Coding 3
Mode extension : CM (complete main)
Format settings, Endianness : Big
Codec ID : A_AC3
Duration : 1h 27mn
Bit rate mode : Constant
Bit rate : 192 Kbps
Channel(s) : 2 channels
Channel positions : Front: L R
Sampling rate : 44.1 KHz
Bit depth : 16 bits
Compression mode : Lossy
Stream size : 121 MiB (2%)
Title : ХиХиДок
Language : Russian
Default : Yes
Forced : Yes

Audio #2
ID : 3
Format : AC-3
Format/Info : Audio Coding 3
Mode extension : CM (complete main)
Format settings, Endianness : Big
Codec ID : A_AC3
Duration : 1h 27mn
Bit rate mode : Constant
Bit rate : 640 Kbps
Channel(s) : 6 channels
Channel positions : Front: L C R, Side: L R, LFE
Sampling rate : 48.0 KHz
Bit depth : 16 bits
Compression mode : Lossy
Stream size : 402 MiB (7%)
Language : English
Default : No
Forced : No

Menu
00:00:00.000 : en:00:00:00.000
00:05:21.821 : en:00:05:21.821
00:11:26.102 : en:00:11:26.102
00:19:07.063 : en:00:19:07.063
00:31:40.774 : en:00:31:40.774
00:42:13.489 : en:00:42:13.489
00:49:47.902 : en:00:49:47.902
00:54:42.404 : en:00:54:42.404
01:01:10.208 : en:01:01:10.208
01:08:42.452 : en:01:08:42.452
01:18:22.114 : en:01:18:22.114
01:24:48.333 : en:01:24:48.333




   Похожие торренты   Торрент   Размер 
В этой теме нет новых непрочитанных сообщений. Удивительные приключения живого трупа / The Amazing Adventures Of The Living Corpse (2012) BDRip 720p от CINEMANIA | L1

2 | 2

3.39 ГБ

В этой теме нет новых непрочитанных сообщений. Удивительные приключения живого трупа / The Amazing Adventures Of The Living Corpse (2012) HDRip | L1

23 | 3

1.46 ГБ

В этой теме нет новых непрочитанных сообщений. Месть трупа / Revenge of the Corpse / Fei shi (1981) DVD5 | Custom | L1

0 | 0

3.48 ГБ

В этой теме нет новых непрочитанных сообщений. Внутри живого тела / National Geographic: Inside the Living Body (2007) HDTVRip

90 | 10

1.46 ГБ

В этой теме нет новых непрочитанных сообщений. Любовь, секс и химия / Better Living Through Chemistry (2014) BDRip 1080p от CINEMANIA | L

116 | 6

10.01 ГБ

В этой теме нет новых непрочитанных сообщений. Среди живущих / Aux yeux des vivants / Among the Living (2014) BDRip 1080p от CINEMANIA | L1

75 | 13

6.67 ГБ

В этой теме нет новых непрочитанных сообщений. Любовь, секс и химия / Better Living Through Chemistry (2014) BDRip 1080p от CINEMANIA | L1

93 | 104

8.05 ГБ




Вы не можете начинать темы
Вы не можете отвечать на сообщения
Вы не можете редактировать свои сообщения
Вы не можете удалять свои сообщения
Вы не можете добавлять вложения

Перейти:  
Для Мосгорсуда, Роскомнадзора и рекламодателей: mosgorsud-torrent[собачка]yandex.ru
 Вход
ppkBB3cker v.2 © 2008-2014 @ PPK
[ Time : 0.040s | 16 Queries | GZIP : Off ]

Торрент трекер RUTOR.IN, Не можете зайти на rutor.org? Какой новый адрес рутор? Какое зеркало рутор? Не работает rutor.org и зеркала? Тогда наш торрент специально для вас. Rutor.in неофициальное зеркало rutor. В случае если у Вас заблокирован rutor или вдруг Вы не можете на него зайти, то Вы без труда сможете скачать бесплатно и без рекламы последние новинки кино, игр, сериалов и прочего у нас, на Rutor.in. Не нужно использовать прокси, чтобы зайти на рутор, достаточно воспользоваться нашим ресурсом. Все новые фильмы, игры, сериалы, книги и музыка за 2013 и 2014 годы через торрент бесплатно. Скачивайте фильмы в хорошем качестве, игры для пк, xbox, playstation без регистрации. У нас вы найдете новые Зарубежные сериалы и Русские сериалы 2013, 2014, 2015 годов. Оставайтесь с нами, качайте любимые фильмы, игры, сериалы, книги и музыку.
cron