img image001 image001 image001 image001 image001 image001 image001 image001 image001 image001 image001 image001 image001 image001 image001

Planets Sun Sun Sun
Статистика раздачи
Автор: PriZraK | Размер: 1.28 ГБ | Добавлен: 15 фев 2014
Раздают: 8    Качают: 3
Скачать торрент
Скачать торрент
Описание торрента

СообщениеДобавлено: 15 фев 2014 



Информация о фильме
Название: Университет монстров
Оригинальное название: Monsters University
Год выхода: 2013
Жанр: мультфильм, фэнтези, комедия, приключения, семейный
Режиссер: Дэн Скэнлон
В ролях: Джон Гудман, Билли Кристал, Стив Бушеми, Хелен Миррен, Питер Сон, Джоэль Мюррей, Шон Хейс, Дэйв Фоли, Чарли Дэй, Альфред Молина

О фильме:
Майк и Салли — самые опытные пугатели в Монстрополисе, но так было далеко не всегда. Когда они встретились впервые, эти монстры терпеть друг друга не могли. «Университет Монстров» — история о том, как наши старые знакомые прошли путь от взаимной неприязни к крепкой дружбе.



Страна: США
Продолжительность: 01:44:17
Перевод: Профессиональный (дублированный) [iTunes Russia]

Файл
Кодек: H.264
Качество: BDRip Исходник: Blu-Ray
Видео: H.264, 640x480 (852х480 анаморф), ~1.78:1, 1500 Kbps, 23.976 fps
Звук:
Русская дорожка, AAC, 2 канала, 48.0 KHz, 128 Kbps, F L,R
Английская дорожка, AAC, 2 канала, 48.0 KHz, 128 Kbps, F L,R

Код:
Media Type: Movie
XID: Apple:vendor_id:2013-tt1453405
Content ID: 668260266
ScreenWriters: Дэн Скэнлон, Дэниэл Джерсон, Роберт Л. Бейрд
Producers: Кори Рэй, Пит Доктер, Николь Паради Гриндл
Director: Дэн Скэнлон
Cast: Джон Гудман, Билли Кристал, Стив Бушеми, Хелен Миррен, Питер Сон, Джоэль Мюррей, Шон Хейс, Дэйв Фоли, Чарли Дэй, Альфред Молина
Rating: G
Long Deion: Майк и Салли — самые опытные пугатели в Монстрополисе, но так было далеко не всегда. Когда они встретились впервые, эти монстры терпеть друг друга не могли. «Университет Монстров» — история о том, как наши старые знакомые прошли путь от взаимной неприязни к крепкой дружбе.
Deion: Майк и Салли — самые опытные пугатели в Монстрополисе, но так было далеко не всегда. Когда они встретились впервые, эти монстры терпеть друг друга не могли. «Университет Монстров» — история о том, как наши старые знакомые прошли путь от взаимной...
Release Date: 2013-06-21T07:00:00Z
Genre:  мультфильм, фэнтези, комедия, приключения, семейный
Artist: Дэн Скэнлон
Name: Университет монстров
Код:
General
Complete name                            : C:UsersNarekDesktopMonsters University.mp4
Format                                   : MPEG-4
Format profile                           : Base Media
Codec ID                                 : isom
File size                                : 1.28 GiB
Duration                                 : 1h 44mn
Overall bit rate mode                    : Variable
Overall bit rate                         : 1 758 Kbps
Movie name                               : Университет монстров
Performer                                : Дэн Скэнлон
Genre                                    :  мультфильм, фэнтези, комедия, приключения, семейный
ContentType                              : Short Film
Deion                              : Майк и Салли — самые опытные пугатели в Монстрополисе, но так было далеко не всегда. Когда они встретились впервые, эти монстры терпеть друг друга не могли. «Университет Монстров» — история о том, как наши старые знакомые прошли путь от взаимной...
Recorded date                            : UTC 2013-06-21 07:00:00
Encoded date                             : UTC 2013-10-27 14:45:46
Tagged date                              : UTC 2013-10-28 14:49:18
Writing application                      : MkvToMp4 [www.mkvtomp4.ru] version: 0.224 (x64)
Cover                                    : Yes
LongDeion                          : Майк и Салли — самые опытные пугатели в Монстрополисе, но так было далеко не всегда. Когда они встретились впервые, эти монстры терпеть друг друга не могли. «Университет Монстров» — история о том, как наши старые знакомые прошли путь от взаимной неприязни к крепкой дружбе.
AppleStoreCatalogID                      : 668260266
Vendor                                   : Apple:vendor_id:2013-tt1453405
ContentRating                            : mpaa|G|100|

Video
ID                                       : 1
Format                                   : AVC
Format/Info                              : Advanced Video Codec
Format profile                           : Baseline@L3.0
Format settings, CABAC                   : No
Format settings, ReFrames                : 3 frames
Codec ID                                 : avc1
Codec ID/Info                            : Advanced Video Coding
Duration                                 : 1h 43mn
Bit rate                                 : 1 500 Kbps
Maximum bit rate                         : 8 378 Kbps
Width                                    : 640 pixels
Height                                   : 480 pixels
Display aspect ratio                     : 16:9
Frame rate mode                          : Variable
Frame rate                               : 23.976 fps
Minimum frame rate                       : 11.987 fps
Maximum frame rate                       : 23.981 fps
Color space                              : YUV
Chroma subsampling                       : 4:2:0
Bit depth                                : 8 bits
Scan type                                : Progressive
Bits/(Pixel*Frame)                       : 0.204
Stream size                              : 1.09 GiB (85%)
Writing library                          : x264 core 130 r2273 b3065e6
Encoding settings                        : cabac=0 / ref=3 / deblock=1:-1:-1 / analyse=0x1:0x111 / me=umh / subme=9 / psy=1 / psy_rd=1.00:0.15 / mixed_ref=1 / me_range=16 / chroma_me=1 / trellis=1 / 8x8dct=0 / cqm=0 / deadzone=21,11 / fast_pskip=1 / chroma_qp_offset=-3 / threads=6 / lookahead_threads=1 / sliced_threads=0 / nr=0 / decimate=1 / interlaced=0 / bluray_compat=0 / constrained_intra=0 / bframes=0 / weightp=0 / keyint=240 / keyint_min=24 / scenecut=40 / intra_refresh=0 / rc_lookahead=40 / rc=2pass / mbtree=1 / bitrate=1500 / ratetol=1.0 / qcomp=0.60 / qpmin=0 / qpmax=69 / qpstep=4 / cplxblur=20.0 / qblur=0.5 / vbv_maxrate=5000 / vbv_bufsize=5000 / nal_hrd=none / ip_ratio=1.40 / aq=1:1.00
Encoded date                             : UTC 2013-10-28 13:22:42
Tagged date                              : UTC 2013-10-27 14:46:27
Color primaries                          : BT.709
Transfer characteristics                 : BT.709
Matrix coefficients                      : BT.709

Audio #1
ID                                       : 2
Format                                   : AAC
Format/Info                              : Advanced Audio Codec
Format profile                           : LC
Codec ID                                 : 40
Duration                                 : 1h 44mn
Bit rate mode                            : Variable
Bit rate                                 : 128 Kbps
Maximum bit rate                         : 287 Kbps
Channel(s)                               : 2 channels
Channel positions                        : Front: L R
Sampling rate                            : 48.0 KHz
Compression mode                         : Lossy
Stream size                              : 95.4 MiB (7%)
Language                                 : English
Encoded date                             : UTC 2013-10-27 14:46:22
Tagged date                              : UTC 2013-10-27 14:46:27

Audio #2
ID                                       : 3
Format                                   : AAC
Format/Info                              : Advanced Audio Codec
Format profile                           : LC
Codec ID                                 : 40
Duration                                 : 1h 43mn
Bit rate mode                            : Variable
Bit rate                                 : 128 Kbps
Maximum bit rate                         : 169 Kbps
Channel(s)                               : 2 channels
Channel positions                        : Front: L R
Sampling rate                            : 48.0 KHz
Compression mode                         : Lossy
Stream size                              : 95.0 MiB (7%)
Language                                 : Russian
Encoded date                             : UTC 2013-10-27 14:46:25
Tagged date                              : UTC 2013-10-27 14:46:27

Text #1
ID                                       : 4
Format                                   : Timed Text
Muxing mode                              : sbtl
Codec ID                                 : tx3g
Duration                                 : 1h 43mn
Bit rate mode                            : Variable
Bit rate                                 : 64 bps
Stream size                              : 48.2 KiB (0%)
Language                                 : English
Encoded date                             : UTC 2013-10-27 14:46:27
Tagged date                              : UTC 2013-10-27 14:46:27

Text #2
ID                                       : 5
Format                                   : Timed Text
Muxing mode                              : sbtl
Codec ID                                 : tx3g
Duration                                 : 1h 43mn
Bit rate mode                            : Variable
Bit rate                                 : 87 bps
Stream size                              : 65.7 KiB (0%)
Language                                 : Russian
Encoded date                             : UTC 2013-10-27 14:46:27
Tagged date                              : UTC 2013-10-27 14:46:27

Menu
ID                                       : 6
Codec ID                                 : text
Duration                                 : 1h 43mn
Encoded date                             : UTC 2013-10-28 14:49:18
Tagged date                              : UTC 2013-10-28 14:49:18
Bit rate mode                            : VBR
Duration_LastFrame                       : -372238
Код:
x264 [info]: frame I:2394  Avg QP:17.53  size: 39754  PSNR Mean Y:47.20 U:50.49 V:50.72 Avg:48.02 Global:47.05
x264 [info]: frame P:146921 Avg QP:20.63  size:  7286  PSNR Mean Y:44.26 U:47.24 V:47.64 Avg:45.05 Global:44.14
x264 [info]: mb I  I16..4: 24.8%  0.0% 75.2%
x264 [info]: mb P  I16..4:  1.4%  0.0%  2.6%  P16..4: 38.0% 15.1%  7.4%  0.0%  0.0%    skip:35.4%
x264 [info]: coded y,uvDC,uvAC intra: 63.9% 79.6% 61.2% inter: 19.8% 34.8% 11.5%
x264 [info]: i16 v,h,dc,p: 41% 18%  8% 33%
x264 [info]: i4 v,h,dc,ddl,ddr,vr,hd,vl,hu: 13%  9%  6% 12% 15% 15% 12% 11%  8%
x264 [info]: i8c dc,h,v,p: 46% 17% 24% 13%
x264 [info]: ref P L0: 74.1% 14.9% 11.0%
x264 [info]: SSIM Mean Y:0.9852207 (18.303db)
x264 [info]: PSNR Mean Y:44.304 U:47.292 V:47.693 Avg:45.097 Global:44.175 kb/s:1497.32




   Похожие торренты   Торрент   Размер 
В этой теме нет новых непрочитанных сообщений. Университет монстров / Monsters University (2013) BDRip от New-Team | D | iTunes Russia

5 | 3

744.59 МБ

В этой теме нет новых непрочитанных сообщений. Университет монстров / Monsters University (2013) BDRip от New-Team | D | iTunes Russia

4 | 3

1.45 ГБ

В этой теме нет новых непрочитанных сообщений. Университет монстров / Monsters University (2013) BDRip-AVC от New-Team | Лицензия

341 | 28

745.15 МБ

В этой теме нет новых непрочитанных сообщений. Корпорация монстров / Monsters, Inc. / Университет монстров / Monsters University (2001-2013) BDRip 720p от Leonardo and Scarabey | iPad

705 | 203

3.31 ГБ

В этой теме нет новых непрочитанных сообщений. Университет монстров / Monsters University (2013) DVD5 от New-Team | D | сжатый

16 | 11

4.36 ГБ

В этой теме нет новых непрочитанных сообщений. Университет монстров / Monsters University (2013) DVD9 R5 от New-Team | D | лицензия

24 | 3

6.49 ГБ

В этой теме нет новых непрочитанных сообщений. Корпорация монстров 2 / Университет монстров / Monsters University (2013) BDRip 1080p | Трейлер

335 | 9

43.7 МБ




Вы не можете начинать темы
Вы не можете отвечать на сообщения
Вы не можете редактировать свои сообщения
Вы не можете удалять свои сообщения
Вы не можете добавлять вложения

Перейти:  
Для Мосгорсуда, Роскомнадзора и рекламодателей: mosgorsud-torrent[собачка]yandex.ru
 Вход
ppkBB3cker v.2 © 2008-2014 @ PPK
[ Time : 1.447s | 15 Queries | GZIP : Off ]

Торрент трекер RUTOR.IN, Не можете зайти на rutor.org? Какой новый адрес рутор? Какое зеркало рутор? Не работает rutor.org и зеркала? Тогда наш торрент специально для вас. Rutor.in неофициальное зеркало rutor. В случае если у Вас заблокирован rutor или вдруг Вы не можете на него зайти, то Вы без труда сможете скачать бесплатно и без рекламы последние новинки кино, игр, сериалов и прочего у нас, на Rutor.in. Не нужно использовать прокси, чтобы зайти на рутор, достаточно воспользоваться нашим ресурсом. Все новые фильмы, игры, сериалы, книги и музыка за 2013 и 2014 годы через торрент бесплатно. Скачивайте фильмы в хорошем качестве, игры для пк, xbox, playstation без регистрации. У нас вы найдете новые Зарубежные сериалы и Русские сериалы 2013, 2014, 2015 годов. Оставайтесь с нами, качайте любимые фильмы, игры, сериалы, книги и музыку.