img image001 image001 image001 image001 image001 image001 image001 image001 image001 image001 image001 image001 image001 image001 image001

Planets Sun Sun Sun
Статистика раздачи
Автор: PriZraK | Размер: 8.62 ГБ | Добавлен: 15 фев 2014
Раздают: 12    Качают: 3
Скачать торрент
Скачать торрент
Описание торрента

СообщениеДобавлено: 15 фев 2014 




Информация о фильме
Название: Повелитель страниц
Оригинальное название: The Pagemaster
Год выпуска: 1994
Жанр: Мультфильм, фэнтези, мелодрама, комедия, детектив, приключения, семейный
Режиссер: Пиксоут Хант, Джо Джонстон
В ролях: Маколей Калкин, Кристофер Ллойд, Мел Харрис, Патрик Стюарт, Вупи Голдберг, Эд Бегли, Алексис Киршнер, Брэндон С. МакКэй, Стефен Шиэн, Фрэнк Уэлкер, Леонард Нимой, Ричард Эрдман, Роберт Пикардо, Фил Хартман

Описание: Прекрасное сочетание актерского кино и мультипликации! Десятилетний пессимист Ричард Тайлер (давно всем известный малолетний ветеран экрана Маколэй Калкин) строит свою жизнь основываясь на статистике и боится практически всего на свете. Его родители пытались развить в сыне храбрость, но их попытки принесли мало пользы. Как-то раз, пытаясь спастись от ливня с грозой, забегает в первое попавшееся на пути здание, которое оказывается библиотекой. В этой библиотеке может произойти любое чудо. Теперь этот мальчик, превратившись в мультяшку, вместе со своими любимыми героями книг, отправляется в увлекательное мультипликационное путешествие, где сказочный Повелитель Страниц (Кристофер Ллойд в роли библиотекаря), пронесет его по просторам волшебной страны, научит оказывать помощь другим и преодолевать любые трудности на своем пути!..


Страна: США
Студия: 20th Century Fox Film Corporation, Turner Pictures (I)
Продолжительность: 01:15:24
Перевод: Профессиональный многоголосый, авторский одноголосый

Файл
Качество: BDRip 1080p
Видео: MPEG-4 AVC, 11 Мбит/с, 1920x1036, 23.976 кадр/с
Аудио #1: Русский (AC3, 6 ch, 448 Кбит/с) / Профессиональный многоголосый
Аудио #2: Русский (DTS, 6 ch, 1510 Кбит/с) / Авторский одноголосый (Ю. Сербин)
Аудио #3: Русский (DTS, 6 ch, 1510 Кбит/с) / Авторский одноголосый (С. Визгунов)
Аудио #4: Русский (AC3, 2 ch, 192 Кбит/с) / Авторский одноголосый (В. Дохалов)
Аудио #5: Русский (AC3, 2 ch, 192 Кбит/с) / Авторский одноголосый (А. Пронин)
Аудио #6: Английский (DTS, 6 ch, 1510 Кбит/с)
Субтитры: Русские, английские

Семпл



Общее
Уникальный идентификатор : 192352893329051598805164583392227776786 (0x90B5D1D8DAE0179C80A12C5B07DE5912)
Полное имя : D:Mои раздачиPovelitel.stranic.1994.BDRip.(1080p)-MediaClub.mkv
Формат : Matroska
Версия формата : Version 4 / Version 2
Размер файла : 8,62 Гбайт
Продолжительность : 1 ч. 15 м.
Общий поток : 16,3 Мбит/сек
Название фильма : -=MediaClub-kaspr=-
Дата кодирования : UTC 2013-10-28 15:55:29
Программа кодирования : mkvmerge v6.1.0 ('Old Devil') built on Mar 4 2013 09:10:42
Библиотека кодирования : libebml v1.3.0 + libmatroska v1.4.0

Видео
Идентификатор : 1
Формат : AVC
Формат/Информация : Advanced Video Codec
Профиль формата : High@L4.1
Параметр CABAC формата : Да
Параметр ReFrames формата : 4 кадра
Идентификатор кодека : V_MPEG4/ISO/AVC
Продолжительность : 1 ч. 15 м.
Битрейт : 11,0 Мбит/сек
Ширина : 1920 пикселей
Высота : 1036 пикселей
Соотношение сторон : 1,85:1
Режим частоты кадров : Постоянный
Частота кадров : 23,976 кадра/сек
Цветовое пространство : YUV
Субдискретизация насыщенности : 4:2:0
Битовая глубина : 8 бит
Тип развёртки : Прогрессивная
Бит/(Пиксели*Кадры) : 0.231
Размер потока : 5,62 Гбайт (65%)
Заголовок : -=MediaClub-kaspr=-
Библиотека кодирования : x264 core 130 r2273 b3065e6
Настройки программы : cabac=1 / ref=4 / deblock=1:-3:-3 / analyse=0x3:0x133 / me=umh / subme=11 / psy=1 / psy_rd=1.00:0.20 / mixed_ref=1 / me_range=48 / chroma_me=1 / trellis=2 / 8x8dct=1 / cqm=0 / deadzone=21,11 / fast_pskip=0 / chroma_qp_offset=-3 / threads=12 / lookahead_threads=2 / sliced_threads=0 / nr=0 / decimate=0 / interlaced=0 / bluray_compat=0 / constrained_intra=0 / bframes=8 / b_pyramid=2 / b_adapt=2 / b_bias=0 / direct=3 / weightb=1 / open_gop=0 / weightp=2 / keyint=240 / keyint_min=23 / scenecut=40 / intra_refresh=0 / rc=2pass / mbtree=0 / bitrate=11000 / ratetol=1.0 / qcomp=0.60 / qpmin=0 / qpmax=69 / qpstep=4 / cplxblur=20.0 / qblur=0.5 / ip_ratio=1.40 / pb_ratio=1.30 / aq=1:1.00
Default : Да
Forced : Да

Аудио #1
Идентификатор : 2
Формат : AC-3
Формат/Информация : Audio Coding 3
Расширение режима : CM (complete main)
Параметр Endianness формата : Big
Идентификатор кодека : A_AC3
Продолжительность : 1 ч. 15 м.
Вид битрейта : Постоянный
Битрейт : 448 Кбит/сек
Каналы : 6 каналов
Расположение каналов : Front: L C R, Side: L R, LFE
Частота : 48,0 КГц
Битовая глубина : 16 бит
Метод сжатия : С потерями
Размер потока : 242 Мбайт (3%)
Заголовок : MVO
Язык : Russian
Default : Да
Forced : Да

Аудио #2
Идентификатор : 3
Формат : DTS
Формат/Информация : Digital Theater Systems
Режим : 16
Параметр Endianness формата : Big
Идентификатор кодека : A_DTS
Продолжительность : 1 ч. 15 м.
Вид битрейта : Постоянный
Битрейт : 1509 Кбит/сек
Каналы : 6 каналов
Расположение каналов : Front: L C R, Side: L R, LFE
Частота : 48,0 КГц
Битовая глубина : 24 бит
Метод сжатия : С потерями
Размер потока : 815 Мбайт (9%)
Заголовок : Сербин
Язык : Russian
Default : Нет
Forced : Нет

Аудио #3
Идентификатор : 4
Формат : DTS
Формат/Информация : Digital Theater Systems
Режим : 16
Параметр Endianness формата : Big
Идентификатор кодека : A_DTS
Продолжительность : 1 ч. 15 м.
Вид битрейта : Постоянный
Битрейт : 1509 Кбит/сек
Каналы : 6 каналов
Расположение каналов : Front: L C R, Side: L R, LFE
Частота : 48,0 КГц
Битовая глубина : 24 бит
Метод сжатия : С потерями
Размер потока : 815 Мбайт (9%)
Заголовок : Визгунов
Язык : Russian
Default : Нет
Forced : Нет

Аудио #4
Идентификатор : 5
Формат : AC-3
Формат/Информация : Audio Coding 3
Расширение режима : CM (complete main)
Параметр Endianness формата : Big
Идентификатор кодека : A_AC3
Продолжительность : 1 ч. 15 м.
Вид битрейта : Постоянный
Битрейт : 192 Кбит/сек
Каналы : 2 канала
Расположение каналов : Front: L R
Частота : 48,0 КГц
Битовая глубина : 16 бит
Метод сжатия : С потерями
Размер потока : 104 Мбайт (1%)
Заголовок : Дохалов
Язык : Russian
Default : Нет
Forced : Нет

Аудио #5
Идентификатор : 6
Формат : AC-3
Формат/Информация : Audio Coding 3
Расширение режима : CM (complete main)
Параметр Endianness формата : Big
Идентификатор кодека : A_AC3
Продолжительность : 1 ч. 15 м.
Вид битрейта : Постоянный
Битрейт : 192 Кбит/сек
Каналы : 2 канала
Расположение каналов : Front: L R
Частота : 48,0 КГц
Битовая глубина : 16 бит
Метод сжатия : С потерями
Размер потока : 104 Мбайт (1%)
Заголовок : Пронин
Язык : Russian
Default : Нет
Forced : Нет

Аудио #6
Идентификатор : 7
Формат : DTS
Формат/Информация : Digital Theater Systems
Режим : 16
Параметр Endianness формата : Big
Идентификатор кодека : A_DTS
Продолжительность : 1 ч. 15 м.
Вид битрейта : Постоянный
Битрейт : 1509 Кбит/сек
Каналы : 6 каналов
Расположение каналов : Front: L C R, Side: L R, LFE
Частота : 48,0 КГц
Битовая глубина : 24 бит
Метод сжатия : С потерями
Размер потока : 815 Мбайт (9%)
Язык : English
Default : Нет
Forced : Нет

Текст #1
Идентификатор : 8
Формат : UTF-8
Идентификатор кодека : S_TEXT/UTF8
Идентификатор кодека/Информация : UTF-8 Plain Text
Язык : Russian
Default : Нет
Forced : Нет

Текст #2
Идентификатор : 9
Формат : UTF-8
Идентификатор кодека : S_TEXT/UTF8
Идентификатор кодека/Информация : UTF-8 Plain Text
Язык : English
Default : Нет
Forced : Нет

Меню
00:00:00.000 : en:Chapter 01
00:03:47.894 : en:Chapter 02
00:07:56.224 : en:Chapter 03
00:12:48.559 : en:Chapter 04
00:16:47.005 : en:Chapter 05
00:19:19.907 : en:Chapter 06
00:22:57.501 : en:Chapter 07
00:31:02.443 : en:Chapter 08
00:33:11.823 : en:Chapter 09
00:36:15.797 : en:Chapter 10
00:39:46.884 : en:Chapter 11
00:45:45.826 : en:Chapter 12
00:51:23.330 : en:Chapter 13
00:57:08.216 : en:Chapter 14
00:59:34.737 : en:Chapter 15
01:02:53.102 : en:Chapter 16
01:05:08.696 : en:Chapter 17
01:07:44.685 : en:Chapter 18

Релиз:



   Похожие торренты   Торрент   Размер 
В этой теме нет новых непрочитанных сообщений. Повелитель страниц / The Pagemaster (1994) BDRip 720p от MediaClub | P, A

4 | 3

7.14 ГБ

В этой теме нет новых непрочитанных сообщений. Повелитель страниц / The Pagemaster (1994) BDRip-AVC от HELLYWOOD | P

11 | 7

1.76 ГБ

В этой теме нет новых непрочитанных сообщений. Повелитель страниц / The Pagemaster (1994) BDRip от HQCLUB

60 | 7

1.45 ГБ

В этой теме нет новых непрочитанных сообщений. Повелитель страниц / The Pagemaster (1994) BDRip от 0ptimus | P, A

15 | 3

2.12 ГБ

В этой теме нет новых непрочитанных сообщений. Повелитель страниц / The Pagemaster (1994) BDRip-AVC от Leonardo and Scarabey

65 | 8

1.93 ГБ

В этой теме нет новых непрочитанных сообщений. Повелитель страниц / The Pagemaster (1994) BDRip 720p от Leonardo and Scarabey | P

65 | 12

5.46 ГБ

В этой теме нет новых непрочитанных сообщений. Повелитель страниц / The Pagemaster (1994) DVDRip

47 | 4

744.14 МБ




Вы не можете начинать темы
Вы не можете отвечать на сообщения
Вы не можете редактировать свои сообщения
Вы не можете удалять свои сообщения
Вы не можете добавлять вложения

Перейти:  
Для Мосгорсуда, Роскомнадзора и рекламодателей: mosgorsud-torrent[собачка]yandex.ru
 Вход
ppkBB3cker v.2 © 2008-2014 @ PPK
[ Time : 0.022s | 15 Queries | GZIP : Off ]

Торрент трекер RUTOR.IN, Не можете зайти на rutor.org? Какой новый адрес рутор? Какое зеркало рутор? Не работает rutor.org и зеркала? Тогда наш торрент специально для вас. Rutor.in неофициальное зеркало rutor. В случае если у Вас заблокирован rutor или вдруг Вы не можете на него зайти, то Вы без труда сможете скачать бесплатно и без рекламы последние новинки кино, игр, сериалов и прочего у нас, на Rutor.in. Не нужно использовать прокси, чтобы зайти на рутор, достаточно воспользоваться нашим ресурсом. Все новые фильмы, игры, сериалы, книги и музыка за 2013 и 2014 годы через торрент бесплатно. Скачивайте фильмы в хорошем качестве, игры для пк, xbox, playstation без регистрации. У нас вы найдете новые Зарубежные сериалы и Русские сериалы 2013, 2014, 2015 годов. Оставайтесь с нами, качайте любимые фильмы, игры, сериалы, книги и музыку.
cron