img image001 image001 image001 image001 image001 image001 image001 image001 image001 image001 image001 image001 image001 image001 image001

Planets Sun Sun Sun
Статистика раздачи
Автор: PriZraK | Размер: 1.46 ГБ | Добавлен: 15 фев 2014
Раздают: 63    Качают: 5
Скачать торрент
Скачать торрент
Описание торрента

СообщениеДобавлено: 15 фев 2014 


Турбо / Turbo

Страна: США, DreamWorks Animation
Жанр: мультфильм, комедия, семейный
Год выпуска: 2013
Продолжительность: 01:35:40
Перевод: Профессиональный (дублированный) BD EUR
Cубтитры: нет
Оригинальная аудиодорожка: нет

Режиссер: Дэвид Сорен / David Soren

Роли озвучили: Райан Рейнольдс /Ryan Reynolds/, Пол Джаматти /Paul Giamatti/, Снуп Догг /Snoop Dogg/, Майя Рудольф /Maya Rudolph/, Мишель Родригес /Michelle Rodriguez/, Сэмюэл Л. Джексон /Samuel L. Jackson/, Луис Гусман /Luis Guzman/, Билл Хейдер /Bill Hader/, Бен Шварц /Ben Schwartz/, Майкл Пенья /Michael Pena/

Описание: Ничто так не раздражает темпераментную, мечтающую о скорости улитку с говорящим именем Турбо, как неспешная жизнь, медленные разговоры, заторможенные соседи. Пусть наш герой выглядит большим чудаком в этом вялом, неторопливом мире, пусть он идёт вопреки закону природы о «рождённом ползать», но если в сердце горит «пламенный мотор», а душа верит в чудо, оно просто не имеет права не произойти!



Качество видео: HDRip [Turbo.2013.BluRay.720p.DTS.Rus.Ukr.2xEng.HDCLUB
Формат видео: AVI
Видео кодек: XviD
Аудио кодек: AC3
Видео: 720x304 (2.37:1), 23.976 fps, XviD build 73 ~1793 kbps avg, 0.34 bit/pixel
Аудио: 48 kHz, AC3 Dolby Digital, 3/2 (L,C,R,l,r) + LFE ch, ~384 kbps

Раздача от:


D:Мои рипыTurbo.2013.HDRip.dexter_lex.avi
General
Complete name : D:Мои рипыTurbo.2013.HDRip.dexter_lex.avi
Format : AVI
Format/Info : Audio Video Interleave
File size : 1.46 GiB
Duration : 1h 35mn
Overall bit rate : 2 187 Kbps
Writing application : VirtualDubMod 1.5.10.3 | www.virtualdub-fr.org || (build 2550/release)
Writing library : VirtualDubMod build 2550/release
Video #0
ID : 0
Format : MPEG-4 Visual
Format profile : Advanced Simple@L5
Format settings, BVOP : 1
Format settings, QPel : No
Format settings, GMC : No warppoints
Format settings, Matrix : Custom
Codec ID : XVID
Codec ID/Hint : XviD
Duration : 1h 35mn
Bit rate : 1 794 Kbps
Width : 720 pixels
Height : 304 pixels
Display aspect ratio : 2.35:1
Frame rate : 23.976 fps
Color space : YUV
Chroma subsampling : 4:2:0
Bit depth : 8 bits
Scan type : Progressive
Compression mode : Lossy
Bits/(Pixel*Frame) : 0.342
Stream size : 1.20 GiB (82%)
Writing library : XviD 73
Audio #1
ID : 1
Format : AC-3
Format/Info : Audio Coding 3
Mode extension : CM (complete main)
Codec ID : 2000
Duration : 1h 35mn
Bit rate mode : Constant
Bit rate : 384 Kbps
Channel(s) : 6 channels
Channel positions : Front: L C R, Side: L R, LFE
Sampling rate : 48.0 KHz
Bit depth : 16 bits
Compression mode : Lossy
Stream size : 263 MiB (18%)
Alignment : Split accross interleaves
Interleave, duration : 42 ms (1.00 video frame)
Interleave, preload duration : 500 ms



   Похожие торренты   Торрент   Размер 
В этой теме нет новых непрочитанных сообщений. Турбо / Turbo (2013) HDRip от New-team | Лицензия

25 | 3

744.57 МБ

В этой теме нет новых непрочитанных сообщений. Турбо / Turbo (2013) BDRip-AVC от New-Team | D | Лицензия

20 | 4

1.45 ГБ

В этой теме нет новых непрочитанных сообщений. Турбо / Turbo (2013) DVD9 R5 от New-Team | D | лицензия

108 | 11

6.15 ГБ

В этой теме нет новых непрочитанных сообщений. Турбо / Turbo (2013) BDRip-AVC от New-Team | D | Лицензия

20 | 7

748.45 МБ

В этой теме нет новых непрочитанных сообщений. Турбо / Turbo (2013) HDRip от Scarabey | Лицензия

422 | 19

1.45 ГБ

В этой теме нет новых непрочитанных сообщений. Турбо / Turbo (2013) HDRip от Scarabey | Лицензия

375 | 15

745.29 МБ

В этой теме нет новых непрочитанных сообщений. Турбо / Turbo (2013) HDRip от Sanjar & NeoJet | Лицензия | КПК

7 | 4

288.05 МБ




Вы не можете начинать темы
Вы не можете отвечать на сообщения
Вы не можете редактировать свои сообщения
Вы не можете удалять свои сообщения
Вы не можете добавлять вложения

Перейти:  
Для Мосгорсуда, Роскомнадзора и рекламодателей: mosgorsud-torrent[собачка]yandex.ru
 Вход
ppkBB3cker v.2 © 2008-2014 @ PPK
[ Time : 0.080s | 15 Queries | GZIP : Off ]

Торрент трекер RUTOR.IN, Не можете зайти на rutor.org? Какой новый адрес рутор? Какое зеркало рутор? Не работает rutor.org и зеркала? Тогда наш торрент специально для вас. Rutor.in неофициальное зеркало rutor. В случае если у Вас заблокирован rutor или вдруг Вы не можете на него зайти, то Вы без труда сможете скачать бесплатно и без рекламы последние новинки кино, игр, сериалов и прочего у нас, на Rutor.in. Не нужно использовать прокси, чтобы зайти на рутор, достаточно воспользоваться нашим ресурсом. Все новые фильмы, игры, сериалы, книги и музыка за 2013 и 2014 годы через торрент бесплатно. Скачивайте фильмы в хорошем качестве, игры для пк, xbox, playstation без регистрации. У нас вы найдете новые Зарубежные сериалы и Русские сериалы 2013, 2014, 2015 годов. Оставайтесь с нами, качайте любимые фильмы, игры, сериалы, книги и музыку.