img image001 image001 image001 image001 image001 image001 image001 image001 image001 image001 image001 image001 image001 image001 image001

Planets Sun Sun Sun
Статистика раздачи
Автор: PriZraK | Размер: 1.61 ГБ | Добавлен: 15 фев 2014
Раздают: 26    Качают: 9
Скачать торрент
Скачать торрент
Описание торрента

СообщениеДобавлено: 15 фев 2014 



Страна: Россия
Год выпуска: 2013
Жанр: мультфильм, фэнтези
Продолжительность: 8 серий ~ 13 минут

Субтитры: нет
Оригинальная аудиодорожка: русский

Озвучивали: Брюс - Александр Таньжин, Марго - Ольга Шорохова, Петя - Прохор Чеховской, Кубик - Диомид Виноградов, Шар - Андрей Ярославцев

Режиссеры: Сергей Серегин, Наталья Мальгина, Софья Кравцова, Алексей Бовкун

Описание: Восемь фантастических историй, в которые попадают самые обычные дети - мальчик Петя и девочка Марго.
Они живут в далеком прошлом, в Москве, в знаменитой Сухаревой башне. В те времена здесь находилась лаборатория загадочного магистра - Якова Брюса.
А еще через эту башню можно попасть в волшебные миры, где Петю, Марго и их механического друга Кубика всегда ждут удивительные приключения.


Ссылка на Кинопоиск отсутствует.



Качество: DVDRip-AVC (DVD9 R5)
Формат: MKV

Видео: 720x572@1024x572 (16:9), 25.000 fps, H264 ~ 2006 kbps avg, 0.195 bit/pixel
Аудио: 48 kHz, АС3 2 ch, 192 kbps, русский

Раздача от:
Общее
Полное имя : Taina.Suharevoy.bashni.2013.O.DVDRip-AVC_[Youtracker]_by_avproh1.mkv
Формат : Matroska
Версия формата : Version 4 / Version 2
Размер файла : 204 Мбайт
Продолжительность : 13 м.
Общий поток : 2190 Кбит/сек
Дата кодирования : UTC 2013-10-25 18:27:49
Программа кодирования : mkvmerge v6.5.0 ('Isn't she lovely') built on Oct 20 2013 12:50:05
Библиотека кодирования : libebml v1.3.0 + libmatroska v1.4.1

Видео
Идентификатор : 1
Формат : AVC
Формат/Информация : Advanced Video Codec
Профиль формата : High@L4.1
Параметр CABAC формата : Да
Параметр ReFrames формата : 6 кадров
Идентификатор кодека : V_MPEG4/ISO/AVC
Продолжительность : 13 м.
Битрейт : 2006 Кбит/сек
Ширина : 720 пикселей
Высота : 572 пикселя
Соотношение сторон : 16:9
Режим частоты кадров : Постоянный
Частота кадров : 25,000 кадров/сек
Цветовое пространство : YUV
Субдискретизация насыщенности : 4:2:0
Битовая глубина : 8 бит
Тип развёртки : Прогрессивная
Бит/(Пиксели*Кадры) : 0.195
Размер потока : 182 Мбайт (89%)
Библиотека кодирования : x264 core 138 r2356 a1d3d17
Настройки программы : cabac=1 / ref=6 / deblock=1:-2:-1 / analyse=0x3:0x113 / me=umh / subme=10 / psy=1 / psy_rd=1.00:0.05 / mixed_ref=1 / me_range=32 / chroma_me=1 / trellis=2 / 8x8dct=1 / cqm=0 / deadzone=21,11 / fast_pskip=0 / chroma_qp_offset=-3 / threads=9 / lookahead_threads=1 / sliced_threads=0 / nr=0 / decimate=0 / interlaced=0 / bluray_compat=0 / constrained_intra=0 / bframes=8 / b_pyramid=2 / b_adapt=2 / b_bias=0 / direct=3 / weightb=1 / open_gop=0 / weightp=2 / keyint=250 / keyint_min=25 / scenecut=40 / intra_refresh=0 / rc=2pass / mbtree=0 / bitrate=2006 / ratetol=1.0 / qcomp=0.60 / qpmin=0 / qpmax=69 / qpstep=4 / cplxblur=20.0 / qblur=0.5 / ip_ratio=1.40 / pb_ratio=1.30 / aq=1:1.00
Язык : Russian
Default : Да
Forced : Нет

Аудио
Идентификатор : 2
Формат : AC-3
Формат/Информация : Audio Coding 3
Расширение режима : CM (complete main)
Параметр Endianness формата : Big
Идентификатор кодека : A_AC3
Продолжительность : 13 м.
Вид битрейта : Постоянный
Битрейт : 192 Кбит/сек
Каналы : 2 канала
Расположение каналов : Front: L R
Частота : 48,0 КГц
Битовая глубина : 16 бит
Метод сжатия : С потерями
Размер потока : 17,9 Мбайт (9%)
Язык : Russian
Default : Да
Forced : Нет



01. Черный Роджер
02. Эликсир жизни
03. Наряд Принцессы ночи
04. Охота на тень
05. Узурпатор времени
06. Морской узел
07. Сон государев
08. Время назад



   Похожие торренты   Торрент   Размер 
В этой теме нет новых непрочитанных сообщений. Тайна Сухаревой башни [01-08 из 08] (2013) DVDRip от New-Team | лицензия

106 | 7

1.63 ГБ

В этой теме нет новых непрочитанных сообщений. Тайна Сухаревой башни [01-08 из 08] (2013) DVD9 R5 от New-Team | лицензия

8 | 3

6 ГБ

В этой теме нет новых непрочитанных сообщений. Чародей равновесия. Тайна Сухаревой башни (2015) WEB-DL-AVC | iTunes

312 | 10

1.45 ГБ

В этой теме нет новых непрочитанных сообщений. Чародей равновесия. Тайна Сухаревой башни (2015) WEB-DLRip | iTunes

1471 | 49

1.37 ГБ

В этой теме нет новых непрочитанных сообщений. Чародей равновесия. Тайна Сухаревой башни (2015) WEB-DL 720p | iTunes

2116 | 54

2.21 ГБ

В этой теме нет новых непрочитанных сообщений. Друиды: Тайна блуждающей башни (2012) PC

46 | 5

167.84 МБ

В этой теме нет новых непрочитанных сообщений. National Geographic. Суперсооружения: Самые высокие башни (Башни Петронас) / National Geographic. MegaStructures: The Tallest Towers (2009) SATRip от tenow

1 | 4

382.89 МБ




Вы не можете начинать темы
Вы не можете отвечать на сообщения
Вы не можете редактировать свои сообщения
Вы не можете удалять свои сообщения
Вы не можете добавлять вложения

Перейти:  
Для Мосгорсуда, Роскомнадзора и рекламодателей: mosgorsud-torrent[собачка]yandex.ru
 Вход
ppkBB3cker v.2 © 2008-2014 @ PPK
[ Time : 0.040s | 14 Queries | GZIP : Off ]

Торрент трекер RUTOR.IN, Не можете зайти на rutor.org? Какой новый адрес рутор? Какое зеркало рутор? Не работает rutor.org и зеркала? Тогда наш торрент специально для вас. Rutor.in неофициальное зеркало rutor. В случае если у Вас заблокирован rutor или вдруг Вы не можете на него зайти, то Вы без труда сможете скачать бесплатно и без рекламы последние новинки кино, игр, сериалов и прочего у нас, на Rutor.in. Не нужно использовать прокси, чтобы зайти на рутор, достаточно воспользоваться нашим ресурсом. Все новые фильмы, игры, сериалы, книги и музыка за 2013 и 2014 годы через торрент бесплатно. Скачивайте фильмы в хорошем качестве, игры для пк, xbox, playstation без регистрации. У нас вы найдете новые Зарубежные сериалы и Русские сериалы 2013, 2014, 2015 годов. Оставайтесь с нами, качайте любимые фильмы, игры, сериалы, книги и музыку.