img image001 image001 image001 image001 image001 image001 image001 image001 image001 image001 image001 image001 image001 image001 image001

Planets Sun Sun Sun
Статистика раздачи
Автор: PriZraK | Размер: 1.39 ГБ | Добавлен: 15 фев 2014
Раздают: 8    Качают: 6
Скачать торрент
Скачать торрент
Описание торрента

СообщениеДобавлено: 15 фев 2014 




Информация о фильме
Название: Лоракс
Оригинальное название: The Lorax
Год выхода: 1972
Жанр: Мультфильм, короткометражка, семейный
Режиссер: Хоули Прэтт
В ролях: Боб Холт, Эдди Альберт, Афина Лорде, Харлен Каррахер, Скэтмэн Крозерс, Турль Рейвенскрофт, Вивиан Вэнс

О фильме:
Мальчик приходит в безлесные пустоши на встречу с разорившемся промышленником, который рассказывает историю о том, что с ним произошло. Его трагическая история о том, как он создал процветающий бизнес на бесполезном продукте моды, полученным из деревьев в лесу. Как, несмотря на предупреждения старого мудрого существа Лоракса о тяжелых последствиях его жадности, он стал быстро развивать бизнес, а лес и его обитатели начали страдать.
Огромная благодарность за помощь в создании рипа Painter
Огромная благодарность Media-Art-Club за созданный постер к раздаче!
Полное имя : H:ФильмСделать русский переводГотовые сделаные релизыLoraks.1972.x264.BDRip.720p-MediaClub.mkv
Формат : Matroska
Версия формата : Version 2
Размер файла : 1,39 Гбайт
Продолжительность : 24 м.
Общий поток : 7955 Кбит/сек
Название фильма : Loraks (1972) BDRip 720p=MediaClub=-[Викс]-
Дата кодирования : UTC 2013-10-24 19:02:20
Программа кодирования : mkvmerge v5.8.0 ('No Sleep / Pillow') built on Sep 2 2012 15:37:04
Библиотека кодирования : libebml v1.2.3 + libmatroska v1.3.0

Видео
Идентификатор : 1
Формат : AVC
Формат/Информация : Advanced Video Codec
Профиль формата : High@L4.1
Параметр CABAC формата : Да
Параметр ReFrames формата : 8 кадров
Идентификатор кодека : V_MPEG4/ISO/AVC
Продолжительность : 24 м.
Битрейт : 7000 Кбит/сек
Ширина : 986 пикселей
Высота : 720 пикселей
Соотношение сторон : 4:3
Режим частоты кадров : Постоянный
Частота кадров : 23,976 кадра/сек
Цветовое пространство : YUV
Субдискретизация насыщенности : 4:2:0
Битовая глубина : 8 бит
Тип развёртки : Прогрессивная
Бит/(Пиксели*Кадры) : 0.411
Размер потока : 1,19 Гбайт (86%)
Библиотека кодирования : x264 core 133 r2334 a3ac64b
Настройки программы : cabac=1 / ref=8 / deblock=1:-2:-2 / analyse=0x3:0x113 / me=umh / subme=11 / psy=1 / psy_rd=0.93:0.05 / mixed_ref=1 / me_range=48 / chroma_me=1 / trellis=2 / 8x8dct=1 / cqm=0 / deadzone=21,11 / fast_pskip=0 / chroma_qp_offset=-3 / threads=6 / lookahead_threads=1 / sliced_threads=0 / nr=0 / decimate=0 / interlaced=0 / bluray_compat=0 / constrained_intra=0 / bframes=8 / b_pyramid=2 / b_adapt=2 / b_bias=0 / direct=3 / weightb=1 / open_gop=0 / weightp=2 / keyint=240 / keyint_min=23 / scenecut=40 / intra_refresh=0 / rc_lookahead=60 / rc=2pass / mbtree=1 / bitrate=7000 / ratetol=1.0 / qcomp=0.60 / qpmin=0 / qpmax=69 / qpstep=4 / cplxblur=20.0 / qblur=0.5 / vbv_maxrate=50000 / vbv_bufsize=52500 / nal_hrd=none / ip_ratio=1.40 / aq=1:0.80
Язык : English
Default : Да
Forced : Нет

Аудио #1
Идентификатор : 2
Формат : AC-3
Формат/Информация : Audio Coding 3
Расширение режима : CM (complete main)
Параметр Endianness формата : Big
Идентификатор кодека : A_AC3
Продолжительность : 24 м.
Вид битрейта : Постоянный
Битрейт : 192 Кбит/сек
Каналы : 2 канала
Расположение каналов : Front: L R
Частота : 48,0 КГц
Битовая глубина : 16 бит
Метод сжатия : С потерями
Размер потока : 34,3 Мбайт (2%)
Заголовок : AP (Dolskij)
Язык : Russian
Default : Да
Forced : Нет

Аудио #2
Идентификатор : 3
Формат : DTS
Формат/Информация : Digital Theater Systems
Режим : 16
Параметр Endianness формата : Big
Идентификатор кодека : A_DTS
Продолжительность : 24 м.
Вид битрейта : Постоянный
Битрейт : 768 Кбит/сек
Каналы : 1 канал
Расположение каналов : Front: C
Частота : 48,0 КГц
Битовая глубина : 24 бит
Метод сжатия : С потерями
Размер потока : 137 Мбайт (10%)
Язык : English
Default : Нет
Forced : Нет

Меню
00:00:00.000 : en:00:00:00.000
00:12:12.732 : en:00:12:12.732
00:24:15.537 : en:00:24:15.537
x264 [info]: frame I:274 Avg QP:18.80 size:153175
x264 [info]: frame P:8724 Avg QP:21.90 size: 60432
x264 [info]: frame B:26907 Avg QP:22.96 size: 27526


Страна: США
Студия: The Cat in the Hat Productions, Columbia Broadcasting System (CBS), DePatie-Freleng Enterprises (DFE)
Продолжительность: 00:24:58
Перевод: Авторский одноголосый (А. Дольский)

Файл
Кодек: x264
Качество: BDRip 720p
Видео: MPEG-4 AVC, 7000 Кбит/с, 986x720, 23.976 кадр/с
Звук:
Аудио #1: Русский (AC3, 2 ch, 192 Кбит/с) / Авторский одноголосый (А. Дольский)
Аудио #2: Английский (DTS, 1 ch, 768 Кбит/с)

Семпл



Релиз от: Рип, работа с аудио - Викс



   Похожие торренты   Торрент   Размер 
В этой теме нет новых непрочитанных сообщений. Лоракс / The Lorax (1972) BDRip MediaClub | A

4 | 6

353.12 МБ

В этой теме нет новых непрочитанных сообщений. Лоракс / The Lorax (1972) BDRip 1080p от MediaClub | A

40 | 7

2.61 ГБ

В этой теме нет новых непрочитанных сообщений. Лоракс / The Lorax (1972) Blu-ray Remux 1080p от MediaClub | A

22 | 24

3.82 ГБ

В этой теме нет новых непрочитанных сообщений. Лоракс / The Lorax (2012) BDRip 720p | Лицензия

21 | 7

4.31 ГБ

В этой теме нет новых непрочитанных сообщений. Лоракс / The Lorax (2012) BDRip 720p от NoLimits-Team

53 | 5

4.37 ГБ

В этой теме нет новых непрочитанных сообщений. Лоракс: Силы природы + Повозка Хоу + Серенада / Lorax: Forces of Nature + Wagon Ho + Serenade (2012) BDRip 720p

8 | 5

395.89 МБ

В этой теме нет новых непрочитанных сообщений. Лоракс / The Lorax (2012) BDRip 1080p

125 | 18

4.37 ГБ




Вы не можете начинать темы
Вы не можете отвечать на сообщения
Вы не можете редактировать свои сообщения
Вы не можете удалять свои сообщения
Вы не можете добавлять вложения

Перейти:  
Для Мосгорсуда, Роскомнадзора и рекламодателей: mosgorsud-torrent[собачка]yandex.ru
 Вход
ppkBB3cker v.2 © 2008-2014 @ PPK
[ Time : 0.648s | 14 Queries | GZIP : Off ]

Торрент трекер RUTOR.IN, Не можете зайти на rutor.org? Какой новый адрес рутор? Какое зеркало рутор? Не работает rutor.org и зеркала? Тогда наш торрент специально для вас. Rutor.in неофициальное зеркало rutor. В случае если у Вас заблокирован rutor или вдруг Вы не можете на него зайти, то Вы без труда сможете скачать бесплатно и без рекламы последние новинки кино, игр, сериалов и прочего у нас, на Rutor.in. Не нужно использовать прокси, чтобы зайти на рутор, достаточно воспользоваться нашим ресурсом. Все новые фильмы, игры, сериалы, книги и музыка за 2013 и 2014 годы через торрент бесплатно. Скачивайте фильмы в хорошем качестве, игры для пк, xbox, playstation без регистрации. У нас вы найдете новые Зарубежные сериалы и Русские сериалы 2013, 2014, 2015 годов. Оставайтесь с нами, качайте любимые фильмы, игры, сериалы, книги и музыку.